  0
SECTION
  2
HEADER
  9
$ACADVER
  1
AC1012
  9
$DWGCODEPAGE
  3
ansi_1250
  9
$INSBASE
 10
0.0
 20
0.0
 30
0.0
  9
$EXTMIN
 10
0.0
 20
0.0
 30
0.0
  9
$EXTMAX
 10
210.0
 20
297.0
 30
0.0
  9
$LIMMIN
 10
0.0
 20
0.0
  9
$LIMMAX
 10
210.0
 20
297.0
  9
$ORTHOMODE
 70
     0
  9
$REGENMODE
 70
     1
  9
$FILLMODE
 70
     1
  9
$QTEXTMODE
 70
     0
  9
$MIRRTEXT
 70
     1
  9
$DRAGMODE
 70
     2
  9
$LTSCALE
 40
1.0
  9
$OSMODE
 70
    37
  9
$ATTMODE
 70
     1
  9
$TEXTSIZE
 40
2.5
  9
$TRACEWID
 40
1.0
  9
$TEXTSTYLE
  7
STANDARD
  9
$CLAYER
  8
0
  9
$CELTYPE
  6
BYLAYER
  9
$CECOLOR
 62
   256
  9
$CELTSCALE
 40
1.0
  9
$DELOBJ
 70
     1
  9
$DISPSILH
 70
     0
  9
$DIMSCALE
 40
1.0
  9
$DIMASZ
 40
2.5
  9
$DIMEXO
 40
0.0
  9
$DIMDLI
 40
3.75
  9
$DIMRND
 40
0.0
  9
$DIMDLE
 40
0.0
  9
$DIMEXE
 40
1.0
  9
$DIMTP
 40
0.0
  9
$DIMTM
 40
0.0
  9
$DIMTXT
 40
2.5
  9
$DIMCEN
 40
2.5
  9
$DIMTSZ
 40
0.0
  9
$DIMTOL
 70
     0
  9
$DIMLIM
 70
     0
  9
$DIMTIH
 70
     1
  9
$DIMTOH
 70
     1
  9
$DIMSE1
 70
     0
  9
$DIMSE2
 70
     0
  9
$DIMTAD
 70
     1
  9
$DIMZIN
 70
     1
  9
$DIMBLK
  1

  9
$DIMASO
 70
     1
  9
$DIMSHO
 70
     1
  9
$DIMPOST
  1

  9
$DIMAPOST
  1

  9
$DIMALT
 70
     0
  9
$DIMALTD
 70
     3
  9
$DIMALTF
 40
0.0393700787
  9
$DIMLFAC
 40
10.0
  9
$DIMTOFL
 70
     1
  9
$DIMTVP
 40
0.0
  9
$DIMTIX
 70
     0
  9
$DIMSOXD
 70
     0
  9
$DIMSAH
 70
     0
  9
$DIMBLK1
  1

  9
$DIMBLK2
  1

  9
$DIMSTYLE
  2
ISO-25
  9
$DIMCLRD
 70
     0
  9
$DIMCLRE
 70
     0
  9
$DIMCLRT
 70
     0
  9
$DIMTFAC
 40
1.0
  9
$DIMGAP
 40
1.524
  9
$DIMJUST
 70
     0
  9
$DIMSD1
 70
     0
  9
$DIMSD2
 70
     0
  9
$DIMTOLJ
 70
     0
  9
$DIMTZIN
 70
     1
  9
$DIMALTZ
 70
     0
  9
$DIMALTTZ
 70
     0
  9
$DIMFIT
 70
     3
  9
$DIMUPT
 70
     0
  9
$DIMUNIT
 70
     2
  9
$DIMDEC
 70
     2
  9
$DIMTDEC
 70
     2
  9
$DIMALTU
 70
     2
  9
$DIMALTTD
 70
     3
  9
$DIMTXSTY
  7
STANDARD
  9
$DIMAUNIT
 70
     0
  9
$LUNITS
 70
     2
  9
$LUPREC
 70
     0
  9
$SKETCHINC
 40
1.0
  9
$FILLETRAD
 40
10.0
  9
$AUNITS
 70
     0
  9
$AUPREC
 70
     2
  9
$MENU
  1
.
  9
$ELEVATION
 40
0.0
  9
$PELEVATION
 40
0.0
  9
$THICKNESS
 40
0.0
  9
$LIMCHECK
 70
     0
  9
$CHAMFERA
 40
10.0
  9
$CHAMFERB
 40
10.0
  9
$CHAMFERC
 40
20.0
  9
$CHAMFERD
 40
0.0
  9
$SKPOLY
 70
     0
  9
$TDCREATE
 40
2455618.546028426
  9
$TDUPDATE
 40
2455618.546028438
  9
$TDINDWG
 40
0.0000000116
  9
$TDUSRTIMER
 40
0.0000000116
  9
$USRTIMER
 70
     1
  9
$ANGBASE
 50
0.0
  9
$ANGDIR
 70
     0
  9
$PDMODE
 70
     0
  9
$PDSIZE
 40
-1.0
  9
$PLINEWID
 40
0.0
  9
$COORDS
 70
     1
  9
$SPLFRAME
 70
     0
  9
$SPLINETYPE
 70
     6
  9
$SPLINESEGS
 70
     8
  9
$ATTDIA
 70
     0
  9
$ATTREQ
 70
     1
  9
$HANDLING
 70
     1
  9
$HANDSEED
  5
D7
  9
$SURFTAB1
 70
     6
  9
$SURFTAB2
 70
     6
  9
$SURFTYPE
 70
     6
  9
$SURFU
 70
     6
  9
$SURFV
 70
     6
  9
$UCSNAME
  2

  9
$UCSORG
 10
0.0
 20
0.0
 30
0.0
  9
$UCSXDIR
 10
1.0
 20
0.0
 30
0.0
  9
$UCSYDIR
 10
0.0
 20
1.0
 30
0.0
  9
$PUCSNAME
  2

  9
$PUCSORG
 10
0.0
 20
0.0
 30
0.0
  9
$PUCSXDIR
 10
1.0
 20
0.0
 30
0.0
  9
$PUCSYDIR
 10
0.0
 20
1.0
 30
0.0
  9
$USERI1
 70
     0
  9
$USERI2
 70
     0
  9
$USERI3
 70
     0
  9
$USERI4
 70
     0
  9
$USERI5
 70
     0
  9
$USERR1
 40
0.0
  9
$USERR2
 40
0.0
  9
$USERR3
 40
0.0
  9
$USERR4
 40
0.0
  9
$USERR5
 40
0.0
  9
$WORLDVIEW
 70
     1
  9
$SHADEDGE
 70
     3
  9
$SHADEDIF
 70
    70
  9
$TILEMODE
 70
     1
  9
$MAXACTVP
 70
    64
  9
$PINSBASE
 10
0.0
 20
0.0
 30
0.0
  9
$PLIMCHECK
 70
     0
  9
$PEXTMIN
 10
1.0000000000E+20
 20
1.0000000000E+20
 30
1.0000000000E+20
  9
$PEXTMAX
 10
-1.0000000000E+20
 20
-1.0000000000E+20
 30
-1.0000000000E+20
  9
$PLIMMIN
 10
0.0
 20
0.0
  9
$PLIMMAX
 10
420.0
 20
297.0
  9
$UNITMODE
 70
     0
  9
$VISRETAIN
 70
     1
  9
$PLINEGEN
 70
     0
  9
$PSLTSCALE
 70
     1
  9
$TREEDEPTH
 70
  3020
  9
$PICKSTYLE
 70
     1
  9
$CMLSTYLE
  2
STANDARD
  9
$CMLJUST
 70
     0
  9
$CMLSCALE
 40
20.0
  9
$SAVEIMAGES
 70
     1
  0
ENDSEC
  0
SECTION
  2
CLASSES
  0
CLASS
  1
ACDBDICTIONARYWDFLT
  2
AcDbDictionaryWithDefault
  3
ObjectDBX Classes
 90
    32768
280
     0
281
     0
  0
CLASS
  1
VISUALSTYLE
  2
AcDbVisualStyle
  3
ObjectDBX Classes
 90
     4095
280
     0
281
     0
  0
CLASS
  1
MATERIAL
  2
AcDbMaterial
  3
ObjectDBX Classes
 90
     1153
280
     0
281
     0
  0
CLASS
  1
XRECORD
  2
AcDbXrecord
  3
AutoCAD 2000
 90
    32768
280
     0
281
     0
  0
ENDSEC
  0
SECTION
  2
TABLES
  0
TABLE
  2
VPORT
  5
8
330
0
100
AcDbSymbolTable
 70
     1
  0
VPORT
  5
29
330
8
100
AcDbSymbolTableRecord
100
AcDbViewportTableRecord
  2
*ACTIVE
 70
     0
 10
0.0
 20
0.0
 11
1.0
 21
1.0
 12
105.0
 22
148.5
 13
0.0
 23
0.0
 14
10.0
 24
10.0
 15
10.0
 25
10.0
 16
0.0
 26
0.0
 36
1.0
 17
0.0
 27
0.0
 37
0.0
 40
297.0
 41
0.7070707071
 42
50.0
 43
0.0
 44
0.0
 50
0.0
 51
0.0
 71
     0
 72
  2000
 73
     1
 74
     3
 75
     0
 76
     0
 77
     0
 78
     0
  0
ENDTAB
  0
TABLE
  2
LTYPE
  5
5
330
0
100
AcDbSymbolTable
 70
    11
  0
LTYPE
  5
14
330
5
100
AcDbSymbolTableRecord
100
AcDbLinetypeTableRecord
  2
BYBLOCK
 70
     0
  3

 72
    65
 73
     0
 40
0.0
  0
LTYPE
  5
15
330
5
100
AcDbSymbolTableRecord
100
AcDbLinetypeTableRecord
  2
BYLAYER
 70
     0
  3

 72
    65
 73
     0
 40
0.0
  0
LTYPE
  5
16
330
5
100
AcDbSymbolTableRecord
100
AcDbLinetypeTableRecord
  2
CONTINUOUS
 70
     0
  3
Solid line
 72
    65
 73
     0
 40
0.0
  0
LTYPE
  5
3F
330
5
100
AcDbSymbolTableRecord
100
AcDbLinetypeTableRecord
  2
SLD-PLNÁ
 70
     0
  3
SolidWorks Line Style
 72
    65
 73
     0
 40
0.0
  0
LTYPE
  5
40
330
5
100
AcDbSymbolTableRecord
100
AcDbLinetypeTableRecord
  2
SLD-ČÁRKOVANÁ
 70
     0
  3
SolidWorks Line Style
 72
    65
 73
     2
 40
1.905
 49
1.27
 74
     0
 49
-0.635
 74
     0
  0
LTYPE
  5
41
330
5
100
AcDbSymbolTableRecord
100
AcDbLinetypeTableRecord
  2
SLD-DVOJITĚ-ČERCHOVANÁ
 70
     0
  3
SolidWorks Line Style
 72
    65
 73
     6
 40
12.7
 49
6.35
 74
     0
 49
-1.27
 74
     0
 49
1.27
 74
     0
 49
-1.27
 74
     0
 49
1.27
 74
     0
 49
-1.27
 74
     0
  0
LTYPE
  5
42
330
5
100
AcDbSymbolTableRecord
100
AcDbLinetypeTableRecord
  2
SLD-ČERCHOVANÁ
 70
     0
  3
SolidWorks Line Style
 72
    65
 73
     4
 40
10.16
 49
6.35
 74
     0
 49
-1.27
 74
     0
 49
1.27
 74
     0
 49
-1.27
 74
     0
  0
LTYPE
  5
43
330
5
100
AcDbSymbolTableRecord
100
AcDbLinetypeTableRecord
  2
SLD-OSA
 70
     0
  3
SolidWorks Line Style
 72
    65
 73
     4
 40
19.05
 49
15.24
 74
     0
 49
-1.27
 74
     0
 49
1.27
 74
     0
 49
-1.27
 74
     0
  0
LTYPE
  5
44
330
5
100
AcDbSymbolTableRecord
100
AcDbLinetypeTableRecord
  2
SLD-TEČKOVANÁ
 70
     0
  3
SolidWorks Line Style
 72
    65
 73
     2
 40
0.635
 49
0.0
 74
     0
 49
-0.635
 74
     0
  0
LTYPE
  5
45
330
5
100
AcDbSymbolTableRecord
100
AcDbLinetypeTableRecord
  2
SLD-HRUBÁ-TENKÁ-ČERCHOVANÁ
 70
     0
  3
SolidWorks Line Style
 72
    65
 73
     4
 40
10.16
 49
6.35
 74
     0
 49
-1.27
 74
     0
 49
1.27
 74
     0
 49
-1.27
 74
     0
  0
LTYPE
  5
46
330
5
100
AcDbSymbolTableRecord
100
AcDbLinetypeTableRecord
  2
SLD-ŘEZ-1
 70
     0
  3
SolidWorks Line Style
 72
    65
 73
     4
 40
8.128
 49
5.08
 74
     0
 49
-1.016
 74
     0
 49
1.016
 74
     0
 49
-1.016
 74
     0
  0
LTYPE
  5
47
330
5
100
AcDbSymbolTableRecord
100
AcDbLinetypeTableRecord
  2
SLD-ŘEZ-2
 70
     0
  3
SolidWorks Line Style
 72
    65
 73
     2
 40
5080.0
 49
0.0
 74
     0
 49
-5080.0
 74
     0
  0
LTYPE
  5
48
330
5
100
AcDbSymbolTableRecord
100
AcDbLinetypeTableRecord
  2
SLD-ŘEZ3
 70
     0
  3
SolidWorks Line Style
 72
    65
 73
     4
 40
9.144
 49
4.572
 74
     0
 49
-1.524
 74
     0
 49
1.524
 74
     0
 49
-1.524
 74
     0
  0
ENDTAB
  0
TABLE
  2
LAYER
  5
2
330
0
100
AcDbSymbolTable
 70
     2
  0
LAYER
  5
10
330
2
100
AcDbSymbolTableRecord
100
AcDbLayerTableRecord
  2
0
 70
     0
 62
     7
  6
CONTINUOUS
  0
LAYER
  5
49
330
2
100
AcDbSymbolTableRecord
100
AcDbLayerTableRecord
  2
FORMAT
 70
     0
 62
     7
  6
SLD-PLNÁ
  0
ENDTAB
  0
TABLE
  2
STYLE
  5
3
330
0
100
AcDbSymbolTable
 70
     2
  0
STYLE
  5
11
330
3
100
AcDbSymbolTableRecord
100
AcDbTextStyleTableRecord
  2
STANDARD
 70
     0
 40
0.0
 41
1.0
 50
0.0
 71
     0
 42
2.5
  3
txt
  4

  0
STYLE
  5
70
330
3
100
AcDbSymbolTableRecord
100
AcDbTextStyleTableRecord
  2
SLDTEXTSTYLE0
 70
     0
 40
0.0
 41
0.75
 50
0.0
 71
     0
 42
0.2
  3
TXT
  4

  0
ENDTAB
  0
TABLE
  2
VIEW
  5
6
330
0
100
AcDbSymbolTable
 70
     0
  0
ENDTAB
  0
TABLE
  2
UCS
  5
7
330
0
100
AcDbSymbolTable
 70
     0
  0
ENDTAB
  0
TABLE
  2
APPID
  5
9
330
0
100
AcDbSymbolTable
 70
     1
  0
APPID
  5
12
330
9
100
AcDbSymbolTableRecord
100
AcDbRegAppTableRecord
  2
ACAD
 70
     0
  0
ENDTAB
  0
TABLE
  2
DIMSTYLE
  5
A
330
0
100
AcDbSymbolTable
 70
     3
  0
DIMSTYLE
105
27
330
A
100
AcDbSymbolTableRecord
100
AcDbDimStyleTableRecord
  2
ISO-25
 70
     0
  3

  4

  5

  6

  7

 40
1.0
 41
2.5
 42
0.625
 43
3.75
 44
1.25
 45
0.0
 46
0.0
 47
0.0
 48
0.0
140
2.5
141
2.5
142
0.0
143
0.0393700787
144
1.0
145
0.0
146
1.0
147
0.625
 71
     0
 72
     0
 73
     0
 74
     0
 75
     0
 76
     0
 77
     1
 78
     8
170
     0
171
     3
172
     1
173
     0
174
     0
175
     0
176
     0
177
     0
178
     0
270
     2
271
     2
272
     2
273
     2
274
     3
340
11
275
     0
280
     0
281
     0
282
     0
283
     0
284
     8
285
     0
286
     0
287
     3
288
     0
  0
DIMSTYLE
105
71
102
{ACAD_REACTORS
330
6F
330
8B
102
}
330
A
100
AcDbSymbolTableRecord
100
AcDbDimStyleTableRecord
  2
SLDDIMSTYLE0
 70
     0
  3

  4

  5

  6

  7

 40
1.0
 41
2.5
 42
0.0625
 43
0.38
 44
0.0
 45
0.000000001
 46
0.0
 47
0.0
 48
0.0
140
5.8208333333
141
0.09
142
0.0
143
25.4
144
1.0
145
0.0
146
1.0
147
1.4552083333
 71
     0
 72
     0
 73
     0
 74
     0
 75
     0
 76
     0
 77
     1
 78
    12
170
     0
171
     2
172
     0
173
     1
174
     0
175
     0
176
     0
177
     0
178
     0
270
     2
271
     0
272
     2
273
     2
274
     2
340
70
275
     0
280
     0
281
     0
282
     0
283
     1
284
    12
285
     0
286
     0
287
     3
288
     0
  0
DIMSTYLE
105
96
102
{ACAD_REACTORS
330
95
102
}
330
A
100
AcDbSymbolTableRecord
100
AcDbDimStyleTableRecord
  2
SLDDIMSTYLE1
 70
     0
  3

  4

  5

  6

  7

 40
1.0
 41
2.5
 42
0.0625
 43
0.38
 44
0.0
 45
0.000000001
 46
0.0
 47
0.0
 48
0.0
140
5.8208333333
141
0.09
142
0.0
143
25.4
144
1.0
145
0.0
146
1.0
147
1.4552083333
 71
     0
 72
     0
 73
     0
 74
     0
 75
     0
 76
     0
 77
     1
 78
    12
170
     0
171
     2
172
     1
173
     1
174
     0
175
     0
176
     0
177
     0
178
     0
270
     2
271
     0
272
     2
273
     2
274
     2
340
70
275
     0
280
     0
281
     0
282
     0
283
     1
284
    12
285
     0
286
     0
288
     0
  0
ENDTAB
  0
TABLE
  2
BLOCK_RECORD
  5
1
330
0
100
AcDbSymbolTable
 70
     4
  0
BLOCK_RECORD
  5
1F
330
1
100
AcDbSymbolTableRecord
100
AcDbBlockTableRecord
  2
*MODEL_SPACE
  0
BLOCK_RECORD
  5
1B
330
1
100
AcDbSymbolTableRecord
100
AcDbBlockTableRecord
  2
*PAPER_SPACE
  0
BLOCK_RECORD
  5
23
330
1
100
AcDbSymbolTableRecord
100
AcDbBlockTableRecord
  2
*PAPER_SPACE0
  0
BLOCK_RECORD
  5
72
330
1
100
AcDbSymbolTableRecord
100
AcDbBlockTableRecord
  2
*D1
  0
BLOCK_RECORD
  5
8C
330
1
100
AcDbSymbolTableRecord
100
AcDbBlockTableRecord
  2
*D2
  0
BLOCK_RECORD
  5
97
330
1
100
AcDbSymbolTableRecord
100
AcDbBlockTableRecord
  2
*D3
  0
ENDTAB
  0
ENDSEC
  0
SECTION
  2
BLOCKS
  0
BLOCK
  5
20
330
1F
100
AcDbEntity
  8
0
100
AcDbBlockBegin
  2
*MODEL_SPACE
 70
     0
 10
0.0
 20
0.0
 30
0.0
  3
*MODEL_SPACE
  1

  0
ENDBLK
  5
21
330
1F
100
AcDbEntity
  8
0
100
AcDbBlockEnd
  0
BLOCK
  5
1C
330
1B
100
AcDbEntity
 67
     1
  8
0
100
AcDbBlockBegin
  2
*PAPER_SPACE
 70
     0
 10
0.0
 20
0.0
 30
0.0
  3
*PAPER_SPACE
  1

  0
ENDBLK
  5
1D
330
1B
100
AcDbEntity
 67
     1
  8
0
100
AcDbBlockEnd
  0
BLOCK
  5
24
330
23
100
AcDbEntity
  8
0
100
AcDbBlockBegin
  2
*PAPER_SPACE0
 70
     0
 10
0.0
 20
0.0
 30
0.0
  3
*PAPER_SPACE0
  1

  0
ENDBLK
  5
25
330
23
100
AcDbEntity
  8
0
100
AcDbBlockEnd
  0
BLOCK
  5
73
330
72
100
AcDbEntity
  8
0
100
AcDbBlockBegin
  2
*D1
 70
     1
 10
0.0
 20
0.0
 30
0.0
  3
*D1
  1

  0
SOLID
  5
75
330
72
100
AcDbEntity
  8
0
  6
SLD-PLNÁ
 62
     9
100
AcDbTrace
 10
124.8209300412
 20
156.802115893
 30
0.0
 11
125.521949165
 21
156.1747152053
 31
0.0
 12
124.6176072771
 22
157.7206578292
 32
0.0
 13
124.6176072771
 23
157.7206578292
 33
0.0
  0
SOLID
  5
76
330
72
100
AcDbEntity
  8
0
  6
SLD-PLNÁ
 62
     9
100
AcDbTrace
 10
167.572227941
 20
181.8106698021
 30
0.0
 11
166.8712088172
 21
182.4380704899
 31
0.0
 12
167.7755507051
 22
180.8921278659
 32
0.0
 13
167.7755507051
 23
180.8921278659
 33
0.0
  0
LINE
  5
77
330
72
100
AcDbEntity
  8
0
  6
SLD-PLNÁ
 62
     9
100
AcDbLine
 10
124.8209300412
 20
156.802115893
 30
0.0
 11
167.572227941
 21
181.8106698021
 31
0.0
  0
MTEXT
  5
78
330
72
100
AcDbEntity
  8
0
  6
SLD-PLNÁ
 62
     9
100
AcDbMText
 10
138.6397277792
 20
173.578797292
 30
-16.9609759016
 40
5.8208333333
 41
0.0
 71
     1
 72
     1
  1
d
  7
SLDTEXTSTYLE0
 11
0.8631605201880872
 21
0.5049296152818041
 31
0.0
  0
ENDBLK
  5
74
330
72
100
AcDbEntity
  8
0
100
AcDbBlockEnd
  0
BLOCK
  5
8D
330
8C
100
AcDbEntity
  8
0
100
AcDbBlockBegin
  2
*D2
 70
     1
 10
0.0
 20
0.0
 30
0.0
  3
*D2
  1

  0
SOLID
  5
8F
330
8C
100
AcDbEntity
  8
0
  6
SLD-PLNÁ
 62
     9
100
AcDbTrace
 10
23.0094415174
 20
116.3235616438
 30
0.0
 11
23.9049543379
 21
122.1443949772
 31
0.0
 12
22.1139286969
 22
122.1443949772
 32
0.0
 13
22.1139286969
 23
122.1443949772
 33
0.0
  0
SOLID
  5
90
330
8C
100
AcDbEntity
  8
0
  6
SLD-PLNÁ
 62
     9
100
AcDbTrace
 10
23.0094415174
 20
267.8235616438
 30
0.0
 11
22.1139286969
 21
262.0027283105
 31
0.0
 12
23.9049543379
 22
262.0027283105
 32
0.0
 13
23.9049543379
 23
262.0027283105
 33
0.0
  0
LINE
  5
91
330
8C
100
AcDbEntity
  8
0
  6
SLD-PLNÁ
 62
     9
100
AcDbLine
 10
62.0094415174
 20
116.3235616438
 30
0.0
 11
22.0094415174
 21
116.3235616438
 31
0.0
  0
LINE
  5
92
330
8C
100
AcDbEntity
  8
0
  6
SLD-PLNÁ
 62
     9
100
AcDbLine
 10
59.0094415174
 20
267.8235616438
 30
0.0
 11
22.0094415174
 21
267.8235616438
 31
0.0
  0
LINE
  5
93
330
8C
100
AcDbEntity
  8
0
  6
SLD-PLNÁ
 62
     9
100
AcDbLine
 10
23.0094415174
 20
116.3235616438
 30
0.0
 11
23.0094415174
 21
267.8235616438
 31
0.0
  0
MTEXT
  5
94
330
8C
100
AcDbEntity
  8
0
  6
SLD-PLNÁ
 62
     9
100
AcDbMText
 10
15.5059926996
 20
181.8130958895
 30
0.1
 40
5.8208333333
 41
0.0
 71
     1
 72
     1
  1
a
  7
SLDTEXTSTYLE0
 11
6.123233995736766E-17
 21
1.0
 31
0.0
  0
ENDBLK
  5
8E
330
8C
100
AcDbEntity
  8
0
100
AcDbBlockEnd
  0
BLOCK
  5
98
330
97
100
AcDbEntity
  8
0
100
AcDbBlockBegin
  2
*D3
 70
     1
 10
0.0
 20
0.0
 30
0.0
  3
*D3
  1

  0
SOLID
  5
9A
330
97
100
AcDbEntity
  8
0
  6
SLD-PLNÁ
 62
     9
100
AcDbTrace
 10
39.0094415174
 20
144.8449456756
 30
0.0
 11
33.1886081841
 21
145.7404584961
 31
0.0
 12
33.1886081841
 22
143.9494328551
 32
0.0
 13
33.1886081841
 23
143.9494328551
 33
0.0
  0
SOLID
  5
9B
330
97
100
AcDbEntity
  8
0
  6
SLD-PLNÁ
 62
     9
100
AcDbTrace
 10
59.0094415174
 20
144.8449456756
 30
0.0
 11
64.8302748507
 21
143.9494328551
 31
0.0
 12
64.8302748507
 22
145.7404584961
 32
0.0
 13
64.8302748507
 23
145.7404584961
 33
0.0
  0
LINE
  5
9C
330
97
100
AcDbEntity
  8
0
  6
SLD-PLNÁ
 62
     9
100
AcDbLine
 10
39.0094415174
 20
117.8235616438
 30
0.0
 11
39.0094415174
 21
145.8449456756
 31
0.0
  0
LINE
  5
9D
330
97
100
AcDbEntity
  8
0
  6
SLD-PLNÁ
 62
     9
100
AcDbLine
 10
39.0094415174
 20
144.8449456756
 30
0.0
 11
27.815531261
 21
144.8449456756
 31
0.0
  0
LINE
  5
9E
330
97
100
AcDbEntity
  8
0
  6
SLD-PLNÁ
 62
     9
100
AcDbLine
 10
39.0094415174
 20
144.8449456756
 30
0.0
 11
59.0094415174
 21
144.8449456756
 31
0.0
  0
LINE
  5
9F
330
97
100
AcDbEntity
  8
0
  6
SLD-PLNÁ
 62
     9
100
AcDbLine
 10
59.0094415174
 20
144.8449456756
 30
0.0
 11
70.2033517738
 21
144.8449456756
 31
0.0
  0
MTEXT
  5
A0
330
97
100
AcDbEntity
  8
0
  6
SLD-PLNÁ
 62
     9
100
AcDbMText
 10
41.8009258753
 20
152.3483944935
 30
0.1
 40
5.8208333333
 41
0.0
 71
     1
 72
     1
  1
20
  7
SLDTEXTSTYLE0
  0
ENDBLK
  5
99
330
97
100
AcDbEntity
  8
0
100
AcDbBlockEnd
  0
ENDSEC
  0
SECTION
  2
ENTITIES
  0
LINE
  5
4A
330
1F
100
AcDbEntity
  8
0
  6
SLD-PLNÁ
 62
     7
100
AcDbLine
 10
121.6138129707
 20
100.8137008541
 30
0.0
 11
123.658311346
 21
102.0096867153
 31
0.0
  0
LINE
  5
4B
330
1F
100
AcDbEntity
  8
0
  6
SLD-PLNÁ
 62
     7
100
AcDbLine
 10
127.8565301999
 20
100.7533311225
 30
0.0
 11
170.6078280996
 21
125.7618850316
 31
0.0
  0
LINE
  5
4C
330
1F
100
AcDbEntity
  8
0
  6
SLD-PLNÁ
 62
     7
100
AcDbLine
 10
121.8070545394
 20
120.3320196115
 30
0.0
 11
123.30567949
 21
120.3338411312
 31
0.0
  0
LINE
  5
4D
330
1F
100
AcDbEntity
  8
0
  6
SLD-PLNÁ
 62
     7
100
AcDbLine
 10
121.8070545394
 20
120.3320196115
 30
0.0
 11
123.3036848981
 21
121.2075149262
 31
0.0
  0
LINE
  5
4E
330
1F
100
AcDbEntity
  8
0
  6
SLD-PLNÁ
 62
     7
100
AcDbLine
 10
123.30567949
 20
120.3338411312
 30
0.0
 11
123.343350589
 21
103.8390129871
 31
0.0
  0
LINE
  5
4F
330
1F
100
AcDbEntity
  8
0
  6
SLD-PLNÁ
 62
     7
100
AcDbLine
 10
121.8070545394
 20
120.3320196115
 30
0.0
 11
121.8447256384
 21
103.8371914673
 31
0.0
  0
ARC
  5
50
330
1F
100
AcDbEntity
  8
0
  6
SLD-PLNÁ
 62
     7
100
AcDbCircle
 10
119.8498842658
 20
103.8293365846
 30
0.0
 40
3.493479724357284
100
AcDbArc
 50
270.0765196581
 51
0.158700715
  0
ARC
  5
51
330
1F
100
AcDbEntity
  8
0
  6
SLD-PLNÁ
 62
     7
100
AcDbCircle
 10
119.8484594251
 20
103.8316618301
 30
0.0
 40
1.996273871796165
100
AcDbArc
 50
270.0765122882
 51
0.1587083235
  0
LINE
  5
52
330
1F
100
AcDbEntity
  8
0
  6
SLD-PLNÁ
 62
     7
100
AcDbLine
 10
119.8511252311
 20
101.8353897383
 30
0.0
 11
103.3662544957
 21
101.8153530258
 31
0.0
  0
LINE
  5
53
330
1F
100
AcDbEntity
  8
0
  6
SLD-PLNÁ
 62
     7
100
AcDbLine
 10
103.3662544957
 20
101.8153530258
 30
0.0
 11
121.8246828459
 21
112.6131211206
 31
0.0
  0
LINE
  5
54
330
1F
100
AcDbEntity
  8
0
  6
SLD-PLNÁ
 62
     7
100
AcDbLine
 10
103.3696791409
 20
100.3158232633
 30
0.0
 11
103.3662544957
 21
101.8153530258
 31
0.0
  0
LINE
  5
55
330
1F
100
AcDbEntity
  8
0
  6
SLD-PLNÁ
 62
     7
100
AcDbLine
 10
119.8545498763
 20
100.3358599758
 30
0.0
 11
103.3696791409
 21
100.3158232633
 31
0.0
  0
ARC
  5
56
330
1F
100
AcDbEntity
  8
0
  6
SLD-PLNÁ
 62
     7
100
AcDbCircle
 10
126.3417433523
 20
103.341253625
 30
0.0
 40
2.997251939285226
100
AcDbArc
 50
180.0398362719
 51
0.0994451956
  0
LINE
  5
57
330
1F
100
AcDbEntity
  8
0
  6
SLD-PLNÁ
 62
     7
100
AcDbLine
 10
123.0054522752
 20
251.7926103839
 30
0.0
 11
123.3444921375
 21
103.3391697135
 31
0.0
  0
LINE
  5
58
330
1F
100
AcDbEntity
  8
0
  6
SLD-PLNÁ
 62
     7
100
AcDbLine
 10
123.0054522752
 20
251.7926103839
 30
0.0
 11
124.5040767607
 21
251.794431903
 31
0.0
  0
LINE
  5
59
330
1F
100
AcDbEntity
  8
0
  6
SLD-PLNÁ
 62
     7
100
AcDbLine
 10
124.5040767607
 20
251.794431903
 30
0.0
 11
124.8431166229
 21
103.3409912327
 31
0.0
  0
ARC
  5
5A
330
1F
100
AcDbEntity
  8
0
  6
SLD-PLNÁ
 62
     7
100
AcDbCircle
 10
126.3417422286
 20
103.3420824253
 30
0.0
 40
1.498626002993435
100
AcDbArc
 50
180.0417187078
 51
0.0975627598
  0
LINE
  5
5B
330
1F
100
AcDbEntity
  8
0
  6
SLD-PLNÁ
 62
     7
100
AcDbLine
 10
127.840366059
 20
103.3446342715
 30
0.0
 11
127.8015534115
 21
120.3393056893
 31
0.0
  0
LINE
  5
5C
330
1F
100
AcDbEntity
  8
0
  6
SLD-PLNÁ
 62
     7
100
AcDbLine
 10
127.8015534115
 20
120.3393056893
 30
0.0
 11
129.3001781296
 21
120.3411272087
 31
0.0
  0
LINE
  5
5D
330
1F
100
AcDbEntity
  8
0
  6
SLD-PLNÁ
 62
     7
100
AcDbLine
 10
129.338990777
 20
103.346455791
 30
0.0
 11
129.3001781296
 21
120.3411272087
 31
0.0
  0
LINE
  5
5E
330
1F
100
AcDbEntity
  8
0
  6
SLD-PLNÁ
 62
     7
100
AcDbLine
 10
124.5040767607
 20
251.794431903
 30
0.0
 11
167.2553746604
 21
276.8029858121
 31
0.0
  0
LINE
  5
5F
330
1F
100
AcDbEntity
  8
0
  6
SLD-PLNÁ
 62
     7
100
AcDbLine
 10
167.2553746604
 20
276.8029858121
 30
0.0
 11
167.5595924887
 21
143.596869493
 31
0.0
  0
POLYLINE
  5
60
330
1F
100
AcDbEntity
  8
0
  6
SLD-PLNÁ
 62
     7
100
AcDb2dPolyline
 66
     1
 10
0.0
 20
0.0
 30
0.0
  0
VERTEX
  5
A1
330
60
100
AcDbEntity
  8
0
  6
SLD-PLNÁ
 62
     7
100
AcDbVertex
100
AcDb2dVertex
 10
166.3196145339
 20
254.4833690527
 30
0.0
  0
VERTEX
  5
A2
330
60
100
AcDbEntity
  8
0
  6
SLD-PLNÁ
 62
     7
100
AcDbVertex
100
AcDb2dVertex
 10
166.3115650862
 20
255.2256433382
 30
0.0
  0
VERTEX
  5
A3
330
60
100
AcDbEntity
  8
0
  6
SLD-PLNÁ
 62
     7
100
AcDbVertex
100
AcDb2dVertex
 10
166.2920494679
 20
255.8475025208
 30
0.0
  0
VERTEX
  5
A4
330
60
100
AcDbEntity
  8
0
  6
SLD-PLNÁ
 62
     7
100
AcDbVertex
100
AcDb2dVertex
 10
166.2640388571
 20
256.2542502052
 30
0.0
  0
VERTEX
  5
A5
330
60
100
AcDbEntity
  8
0
  6
SLD-PLNÁ
 62
     7
100
AcDbVertex
100
AcDb2dVertex
 10
166.2317974961
 20
256.3839868174
 30
0.0
  0
VERTEX
  5
A6
330
60
100
AcDbEntity
  8
0
  6
SLD-PLNÁ
 62
     7
100
AcDbVertex
100
AcDb2dVertex
 10
166.2002340449
 20
256.2169258159
 30
0.0
  0
VERTEX
  5
A7
330
60
100
AcDbEntity
  8
0
  6
SLD-PLNÁ
 62
     7
100
AcDbVertex
100
AcDb2dVertex
 10
166.1741534902
 20
255.7785360085
 30
0.0
  0
VERTEX
  5
A8
330
60
100
AcDbEntity
  8
0
  6
SLD-PLNÁ
 62
     7
100
AcDbVertex
100
AcDb2dVertex
 10
166.1575265775
 20
255.1355342529
 30
0.0
  0
VERTEX
  5
A9
330
60
100
AcDbEntity
  8
0
  6
SLD-PLNÁ
 62
     7
100
AcDbVertex
100
AcDb2dVertex
 10
166.1528845164
 20
254.3858357184
 30
0.0
  0
VERTEX
  5
AA
330
60
100
AcDbEntity
  8
0
  6
SLD-PLNÁ
 62
     7
100
AcDbVertex
100
AcDb2dVertex
 10
166.1609339981
 20
253.6435465365
 30
0.0
  0
VERTEX
  5
AB
330
60
100
AcDbEntity
  8
0
  6
SLD-PLNÁ
 62
     7
100
AcDbVertex
100
AcDb2dVertex
 10
166.1804496163
 20
253.0216873538
 30
0.0
  0
VERTEX
  5
AC
330
60
100
AcDbEntity
  8
0
  6
SLD-PLNÁ
 62
     7
100
AcDbVertex
100
AcDb2dVertex
 10
166.2084603238
 20
252.6149322678
 30
0.0
  0
VERTEX
  5
AD
330
60
100
AcDbEntity
  8
0
  6
SLD-PLNÁ
 62
     7
100
AcDbVertex
100
AcDb2dVertex
 10
166.2407015882
 20
252.4852030573
 30
0.0
  0
VERTEX
  5
AE
330
60
100
AcDbEntity
  8
0
  6
SLD-PLNÁ
 62
     7
100
AcDbVertex
100
AcDb2dVertex
 10
166.272265136
 20
252.6522566571
 30
0.0
  0
VERTEX
  5
AF
330
60
100
AcDbEntity
  8
0
  6
SLD-PLNÁ
 62
     7
100
AcDbVertex
100
AcDb2dVertex
 10
166.2983455941
 20
253.0906538662
 30
0.0
  0
VERTEX
  5
B0
330
60
100
AcDbEntity
  8
0
  6
SLD-PLNÁ
 62
     7
100
AcDbVertex
100
AcDb2dVertex
 10
166.3149725068
 20
253.7336556218
 30
0.0
  0
VERTEX
  5
B1
330
60
100
AcDbEntity
  8
0
  6
SLD-PLNÁ
 62
     7
100
AcDbVertex
100
AcDb2dVertex
 10
166.3196145339
 20
254.4833690527
 30
0.0
  0
SEQEND
  5
B2
330
60
100
AcDbEntity
  8
0
  6
SLD-PLNÁ
 62
     7
  0
POLYLINE
  5
61
330
1F
100
AcDbEntity
  8
0
  6
SLD-PLNÁ
 62
     7
100
AcDb2dPolyline
 66
     1
 10
0.0
 20
0.0
 30
0.0
  0
VERTEX
  5
B3
330
61
100
AcDbEntity
  8
0
  6
SLD-PLNÁ
 62
     7
100
AcDbVertex
100
AcDb2dVertex
 10
166.4394771369
 20
201.999818287
 30
0.0
  0
VERTEX
  5
B4
330
61
100
AcDbEntity
  8
0
  6
SLD-PLNÁ
 62
     7
100
AcDbVertex
100
AcDb2dVertex
 10
166.4314276552
 20
202.742107469
 30
0.0
  0
VERTEX
  5
B5
330
61
100
AcDbEntity
  8
0
  6
SLD-PLNÁ
 62
     7
100
AcDbVertex
100
AcDb2dVertex
 10
166.4119120369
 20
203.3639666516
 30
0.0
  0
VERTEX
  5
B6
330
61
100
AcDbEntity
  8
0
  6
SLD-PLNÁ
 62
     7
100
AcDbVertex
100
AcDb2dVertex
 10
166.3839014261
 20
203.770714336
 30
0.0
  0
VERTEX
  5
B7
330
61
100
AcDbEntity
  8
0
  6
SLD-PLNÁ
 62
     7
100
AcDbVertex
100
AcDb2dVertex
 10
166.3516600821
 20
203.9004434999
 30
0.0
  0
VERTEX
  5
B8
330
61
100
AcDbEntity
  8
0
  6
SLD-PLNÁ
 62
     7
100
AcDbVertex
100
AcDb2dVertex
 10
166.3200966139
 20
203.7333899467
 30
0.0
  0
VERTEX
  5
B9
330
61
100
AcDbEntity
  8
0
  6
SLD-PLNÁ
 62
     7
100
AcDbVertex
100
AcDb2dVertex
 10
166.2940160592
 20
203.2950001393
 30
0.0
  0
VERTEX
  5
BA
330
61
100
AcDbEntity
  8
0
  6
SLD-PLNÁ
 62
     7
100
AcDbVertex
100
AcDb2dVertex
 10
166.2773891464
 20
202.6519983836
 30
0.0
  0
VERTEX
  5
BB
330
61
100
AcDbEntity
  8
0
  6
SLD-PLNÁ
 62
     7
100
AcDbVertex
100
AcDb2dVertex
 10
166.2727471194
 20
201.9022849527
 30
0.0
  0
VERTEX
  5
BC
330
61
100
AcDbEntity
  8
0
  6
SLD-PLNÁ
 62
     7
100
AcDbVertex
100
AcDb2dVertex
 10
166.280796584
 20
201.1600032191
 30
0.0
  0
VERTEX
  5
BD
330
61
100
AcDbEntity
  8
0
  6
SLD-PLNÁ
 62
     7
100
AcDbVertex
100
AcDb2dVertex
 10
166.3003122023
 20
200.5381440364
 30
0.0
  0
VERTEX
  5
BE
330
61
100
AcDbEntity
  8
0
  6
SLD-PLNÁ
 62
     7
100
AcDbVertex
100
AcDb2dVertex
 10
166.3283229098
 20
200.1313889504
 30
0.0
  0
VERTEX
  5
BF
330
61
100
AcDbEntity
  8
0
  6
SLD-PLNÁ
 62
     7
100
AcDbVertex
100
AcDb2dVertex
 10
166.3605641572
 20
200.0016671881
 30
0.0
  0
VERTEX
  5
C0
330
61
100
AcDbEntity
  8
0
  6
SLD-PLNÁ
 62
     7
100
AcDbVertex
100
AcDb2dVertex
 10
166.3921277219
 20
200.1687133397
 30
0.0
  0
VERTEX
  5
C1
330
61
100
AcDbEntity
  8
0
  6
SLD-PLNÁ
 62
     7
100
AcDbVertex
100
AcDb2dVertex
 10
166.4182081801
 20
200.6071105488
 30
0.0
  0
VERTEX
  5
C2
330
61
100
AcDbEntity
  8
0
  6
SLD-PLNÁ
 62
     7
100
AcDbVertex
100
AcDb2dVertex
 10
166.4348350928
 20
201.2501123044
 30
0.0
  0
VERTEX
  5
C3
330
61
100
AcDbEntity
  8
0
  6
SLD-PLNÁ
 62
     7
100
AcDbVertex
100
AcDb2dVertex
 10
166.4394771369
 20
201.999818287
 30
0.0
  0
SEQEND
  5
C4
330
61
100
AcDbEntity
  8
0
  6
SLD-PLNÁ
 62
     7
  0
POLYLINE
  5
62
330
1F
100
AcDbEntity
  8
0
  6
SLD-PLNÁ
 62
     7
100
AcDb2dPolyline
 66
     1
 10
0.0
 20
0.0
 30
0.0
  0
VERTEX
  5
C5
330
62
100
AcDbEntity
  8
0
  6
SLD-PLNÁ
 62
     7
100
AcDbVertex
100
AcDb2dVertex
 10
166.5593397143
 20
149.5162786937
 30
0.0
  0
VERTEX
  5
C6
330
62
100
AcDbEntity
  8
0
  6
SLD-PLNÁ
 62
     7
100
AcDbVertex
100
AcDb2dVertex
 10
166.5512902369
 20
150.2585660136
 30
0.0
  0
VERTEX
  5
C7
330
62
100
AcDbEntity
  8
0
  6
SLD-PLNÁ
 62
     7
100
AcDbVertex
100
AcDb2dVertex
 10
166.5317746271
 20
150.8804214721
 30
0.0
  0
VERTEX
  5
C8
330
62
100
AcDbEntity
  8
0
  6
SLD-PLNÁ
 62
     7
100
AcDbVertex
100
AcDb2dVertex
 10
166.5037640036
 20
151.2871747427
 30
0.0
  0
VERTEX
  5
C9
330
62
100
AcDbEntity
  8
0
  6
SLD-PLNÁ
 62
     7
100
AcDbVertex
100
AcDb2dVertex
 10
166.4715226638
 20
151.4169020446
 30
0.0
  0
VERTEX
  5
CA
330
62
100
AcDbEntity
  8
0
  6
SLD-PLNÁ
 62
     7
100
AcDbVertex
100
AcDb2dVertex
 10
166.4399591914
 20
151.2498503534
 30
0.0
  0
VERTEX
  5
CB
330
62
100
AcDbEntity
  8
0
  6
SLD-PLNÁ
 62
     7
100
AcDbVertex
100
AcDb2dVertex
 10
166.4138786494
 20
150.8114549598
 30
0.0
  0
VERTEX
  5
CC
330
62
100
AcDbEntity
  8
0
  6
SLD-PLNÁ
 62
     7
100
AcDbVertex
100
AcDb2dVertex
 10
166.3972517282
 20
150.1684569283
 30
0.0
  0
VERTEX
  5
CD
330
62
100
AcDbEntity
  8
0
  6
SLD-PLNÁ
 62
     7
100
AcDbVertex
100
AcDb2dVertex
 10
166.3926096969
 20
149.4187453594
 30
0.0
  0
VERTEX
  5
CE
330
62
100
AcDbEntity
  8
0
  6
SLD-PLNÁ
 62
     7
100
AcDbVertex
100
AcDb2dVertex
 10
166.40065917
 20
148.6764599016
 30
0.0
  0
VERTEX
  5
CF
330
62
100
AcDbEntity
  8
0
  6
SLD-PLNÁ
 62
     7
100
AcDbVertex
100
AcDb2dVertex
 10
166.420174784
 20
148.054602581
 30
0.0
  0
VERTEX
  5
D0
330
62
100
AcDbEntity
  8
0
  6
SLD-PLNÁ
 62
     7
100
AcDbVertex
100
AcDb2dVertex
 10
166.4481854872
 20
147.6478493571
 30
0.0
  0
VERTEX
  5
D1
330
62
100
AcDbEntity
  8
0
  6
SLD-PLNÁ
 62
     7
100
AcDbVertex
100
AcDb2dVertex
 10
166.4804267431
 20
147.5181238706
 30
0.0
  0
VERTEX
  5
D2
330
62
100
AcDbEntity
  8
0
  6
SLD-PLNÁ
 62
     7
100
AcDbVertex
100
AcDb2dVertex
 10
166.5119902994
 20
147.6851737463
 30
0.0
  0
VERTEX
  5
D3
330
62
100
AcDbEntity
  8
0
  6
SLD-PLNÁ
 62
     7
100
AcDbVertex
100
AcDb2dVertex
 10
166.5380707618
 20
148.1235690934
 30
0.0
  0
VERTEX
  5
D4
330
62
100
AcDbEntity
  8
0
  6
SLD-PLNÁ
 62
     7
100
AcDbVertex
100
AcDb2dVertex
 10
166.5546976788
 20
148.7665689869
 30
0.0
  0
VERTEX
  5
D5
330
62
100
AcDbEntity
  8
0
  6
SLD-PLNÁ
 62
     7
100
AcDbVertex
100
AcDb2dVertex
 10
166.5593397143
 20
149.5162786937
 30
0.0
  0
SEQEND
  5
D6
330
62
100
AcDbEntity
  8
0
  6
SLD-PLNÁ
 62
     7
  0
LINE
  5
63
330
1F
100
AcDbEntity
  8
0
  6
SLD-PLNÁ
 62
     7
100
AcDbLine
 10
123.0054522752
 20
251.7926103839
 30
0.0
 11
165.756750175
 21
276.801164293
 31
0.0
  0
LINE
  5
64
330
1F
100
AcDbEntity
  8
0
  6
SLD-PLNÁ
 62
     7
100
AcDbLine
 10
165.756750175
 20
276.801164293
 30
0.0
 11
167.2553746604
 21
276.8029858121
 31
0.0
  0
LINE
  5
65
330
1F
100
AcDbEntity
  8
0
  6
SLD-PLNÁ
 62
     7
100
AcDbLine
 10
129.3001781296
 20
120.3411272087
 30
0.0
 11
172.0514760293
 21
145.3496811178
 31
0.0
  0
LINE
  5
66
330
1F
100
AcDbEntity
  8
0
  6
SLD-PLNÁ
 62
     7
100
AcDbLine
 10
172.0902886768
 20
128.3550097001
 30
0.0
 11
172.0514760293
 21
145.3496811178
 31
0.0
  0
LINE
  5
67
330
1F
100
AcDbEntity
  8
0
  6
SLD-PLNÁ
 62
     7
100
AcDbLine
 10
127.8015534115
 20
120.3393056893
 30
0.0
 11
170.5528513113
 21
145.3478595984
 31
0.0
  0
LINE
  5
68
330
1F
100
AcDbEntity
  8
0
  6
SLD-PLNÁ
 62
     7
100
AcDbLine
 10
170.5528513113
 20
145.3478595984
 30
0.0
 11
172.0514760293
 21
145.3496811178
 31
0.0
  0
ARC
  5
69
330
1F
100
AcDbEntity
  8
0
  6
SLD-PLNÁ
 62
     7
100
AcDbCircle
 10
169.0946516152
 20
128.3472666835
 30
0.0
 40
2.995647068492536
100
AcDbArc
 50
300.3396562305
 51
0.1480957721
  0
LINE
  5
6A
330
1F
100
AcDbEntity
  8
0
  6
SLD-PLNÁ
 62
     7
100
AcDbLine
 10
121.8447256384
 20
103.8371914673
 30
0.0
 11
123.343350589
 21
103.8390129871
 31
0.0
  0
LINE
  5
6B
330
1F
100
AcDbEntity
  8
0
  6
SLD-PLNÁ
 62
     7
100
AcDbLine
 10
119.8545498763
 20
100.3358599758
 30
0.0
 11
119.8511252311
 21
101.8353897383
 31
0.0
  0
LINE
  5
6C
330
1F
100
AcDbEntity
  8
0
  6
SLD-PLNÁ
 62
     7
100
AcDbLine
 10
119.8511252311
 20
101.8353897383
 30
0.0
 11
121.5871159472
 21
102.850905513
 31
0.0
  0
LINE
  5
6D
330
1F
100
AcDbEntity
  8
0
  6
SLD-PLNÁ
 62
     7
100
AcDbLine
 10
124.8431166229
 20
103.3409912327
 30
0.0
 11
127.8363747922
 21
105.0919803714
 31
0.0
  0
LINE
  5
6E
330
1F
100
AcDbEntity
  8
0
  6
SLD-PLNÁ
 62
     7
100
AcDbLine
 10
129.338990777
 20
103.346455791
 30
0.0
 11
172.0902886768
 21
128.3550097001
 31
0.0
  0
DIMENSION
  5
6F
330
1F
100
AcDbEntity
  8
0
  6
SLD-PLNÁ
 62
     9
100
AcDbDimension
  2
*D1
 10
167.572227941
 20
181.8106698021
 30
0.0
 11
146.9177586825
 21
169.7282668509
 31
0.0
 70
   160
  3
SLDDIMSTYLE0
100
AcDbAlignedDimension
 13
124.9430249626
 23
103.3411126673
 33
0.0
 14
167.6943228624
 24
128.3496665764
 34
0.0
 50
30.3266801808
100
AcDbRotatedDimension
  0
ARC
  5
79
330
1F
100
AcDbEntity
  8
0
  6
SLD-PLNÁ
 62
     7
100
AcDbCircle
 10
55.5094415174
 20
119.8235616438
 30
0.0
 40
2.000000000000007
100
AcDbArc
 50
270.0
 51
0.0
  0
ARC
  5
7A
330
1F
100
AcDbEntity
  8
0
  6
SLD-PLNÁ
 62
     7
100
AcDbCircle
 10
55.5094415174
 20
119.8235616438
 30
0.0
 40
3.5
100
AcDbArc
 50
270.0
 51
0.0
  0
LINE
  5
7B
330
1F
100
AcDbEntity
  8
0
  6
SLD-PLNÁ
 62
     7
100
AcDbLine
 10
39.0094421581
 20
116.3235616178
 30
0.0
 11
39.0094421581
 21
117.8235616308
 31
0.0
  0
LINE
  5
7C
330
1F
100
AcDbEntity
  8
0
  6
SLD-PLNÁ
 62
     7
100
AcDbLine
 10
55.5094411374
 20
117.8235616308
 30
0.0
 11
39.0094421581
 21
117.8235616308
 31
0.0
  0
LINE
  5
7D
330
1F
100
AcDbEntity
  8
0
  6
SLD-PLNÁ
 62
     7
100
AcDbLine
 10
55.5094411374
 20
116.3235616178
 30
0.0
 11
39.0094421581
 21
116.3235616178
 31
0.0
  0
LINE
  5
7E
330
1F
100
AcDbEntity
  8
0
  6
SLD-PLNÁ
 62
     7
100
AcDbLine
 10
57.5094414652
 20
136.3235625677
 30
0.0
 11
57.5094414652
 21
119.8235616676
 31
0.0
  0
LINE
  5
7F
330
1F
100
AcDbEntity
  8
0
  6
SLD-PLNÁ
 62
     7
100
AcDbLine
 10
57.5094414652
 20
136.3235625677
 30
0.0
 11
59.0094417111
 21
136.3235625677
 31
0.0
  0
LINE
  5
80
330
1F
100
AcDbEntity
  8
0
  6
SLD-PLNÁ
 62
     7
100
AcDbLine
 10
59.0094417111
 20
136.3235625677
 30
0.0
 11
59.0094417111
 21
119.8235616676
 31
0.0
  0
LINE
  5
81
330
1F
100
AcDbEntity
  8
0
  6
SLD-PLNÁ
 62
     7
100
AcDbLine
 10
59.0094417111
 20
267.8235571139
 30
0.0
 11
59.0094417111
 21
119.3235616438
 31
0.0
  0
LINE
  5
82
330
1F
100
AcDbEntity
  8
0
  6
SLD-PLNÁ
 62
     7
100
AcDbLine
 10
60.5094414913
 20
267.8235571139
 30
0.0
 11
60.5094414913
 21
119.3235616438
 31
0.0
  0
ARC
  5
83
330
1F
100
AcDbEntity
  8
0
  6
SLD-PLNÁ
 62
     7
100
AcDbCircle
 10
62.0094415174
 20
119.3235616438
 30
0.0
 40
1.500000000000007
100
AcDbArc
 50
180.0
 51
0.0
  0
ARC
  5
84
330
1F
100
AcDbEntity
  8
0
  6
SLD-PLNÁ
 62
     7
100
AcDbCircle
 10
62.0094415174
 20
119.3235616438
 30
0.0
 40
3.000000000000007
100
AcDbArc
 50
180.0
 51
0.0
  0
LINE
  5
85
330
1F
100
AcDbEntity
  8
0
  6
SLD-PLNÁ
 62
     7
100
AcDbLine
 10
65.0094415304
 20
119.3235616438
 30
0.0
 11
65.0094415304
 21
136.3235625677
 31
0.0
  0
LINE
  5
86
330
1F
100
AcDbEntity
  8
0
  6
SLD-PLNÁ
 62
     7
100
AcDbLine
 10
59.0094417111
 20
267.8235571139
 30
0.0
 11
60.5094414913
 21
267.8235571139
 31
0.0
  0
LINE
  5
87
330
1F
100
AcDbEntity
  8
0
  6
SLD-PLNÁ
 62
     7
100
AcDbLine
 10
63.5094415174
 20
119.3235616438
 30
0.0
 11
63.5094415174
 21
136.3235625677
 31
0.0
  0
LINE
  5
88
330
1F
100
AcDbEntity
  8
0
  6
SLD-PLNÁ
 62
     7
100
AcDbLine
 10
63.5094415174
 20
136.3235625677
 30
0.0
 11
65.0094415304
 21
136.3235625677
 31
0.0
  0
LINE
  5
89
330
1F
100
AcDbEntity
  8
0
  6
SLD-PLNÁ
 62
     7
100
AcDbLine
 10
57.5094414652
 20
119.8235616676
 30
0.0
 11
59.0094417111
 21
119.8235616676
 31
0.0
  0
LINE
  5
8A
330
1F
100
AcDbEntity
  8
0
  6
SLD-PLNÁ
 62
     7
100
AcDbLine
 10
55.5094411374
 20
116.3235616178
 30
0.0
 11
55.5094411374
 21
117.8235616308
 31
0.0
  0
DIMENSION
  5
8B
330
1F
100
AcDbEntity
  8
0
  6
SLD-PLNÁ
 62
     9
100
AcDbDimension
  2
*D2
 10
23.0094415174
 20
267.8235616438
 30
0.0
 11
23.0094415174
 21
187.0141184959
 31
0.0
 70
   160
  3
SLDDIMSTYLE0
100
AcDbAlignedDimension
 13
62.0094415174
 23
116.3235616438
 33
0.0
 14
59.0094415174
 24
267.8235616438
 34
0.0
 50
90.0
100
AcDbRotatedDimension
  0
DIMENSION
  5
95
330
1F
100
AcDbEntity
  8
0
  6
SLD-PLNÁ
 62
     9
100
AcDbDimension
  2
*D3
 10
59.0094415174
 20
144.8449456756
 30
0.0
 11
48.7859262099
 21
144.8449456756
 31
0.0
 70
   160
  3
SLDDIMSTYLE1
100
AcDbAlignedDimension
 13
39.0094415174
 23
117.8235616438
 33
0.0
 14
59.0094415174
 24
119.3235616438
 34
0.0
100
AcDbRotatedDimension
  0
ENDSEC
  0
SECTION
  2
OBJECTS
  0
DICTIONARY
  5
C
330
0
100
AcDbDictionary
  3
ACAD_GROUP
350
D
  3
ACAD_MLINESTYLE
350
17
1001
ACAD
1000
TREAT_AS_HARD
1070
     0
  0
DICTIONARY
  5
D
102
{ACAD_REACTORS
330
C
102
}
330
C
100
AcDbDictionary
1001
ACAD
1000
TREAT_AS_HARD
1070
     0
  0
DICTIONARY
  5
17
102
{ACAD_REACTORS
330
C
102
}
330
C
100
AcDbDictionary
  3
STANDARD
350
18
1001
ACAD
1000
TREAT_AS_HARD
1070
     0
  0
MLINESTYLE
  5
18
102
{ACAD_REACTORS
330
17
102
}
330
17
100
AcDbMlineStyle
  2
Standard
 70
     0
  3

 62
   256
 51
90.0
 52
90.0
 71
     2
 49
0.5
 62
   256
  6
BYLAYER
 49
-0.5
 62
   256
  6
BYLAYER
  0
ENDSEC
  0
EOF
