  0
SECTION
  2
HEADER
  9
$ACADVER
  1
AC1015
  9
$ACADMAINTVER
 70
     6
  9
$DWGCODEPAGE
  3
ANSI_1250
  9
$INSBASE
 10
0.0
 20
0.0
 30
0.0
  9
$EXTMIN
 10
0.0
 20
0.0
 30
0.0
  9
$EXTMAX
 10
210.0
 20
297.0
 30
0.0
  9
$LIMMIN
 10
0.0
 20
0.0
  9
$LIMMAX
 10
210.0
 20
297.0
  9
$ORTHOMODE
 70
     0
  9
$REGENMODE
 70
     1
  9
$FILLMODE
 70
     1
  9
$QTEXTMODE
 70
     0
  9
$MIRRTEXT
 70
     1
  9
$LTSCALE
 40
1.0
  9
$ATTMODE
 70
     1
  9
$TEXTSIZE
 40
2.5
  9
$TRACEWID
 40
1.0
  9
$TEXTSTYLE
  7
Standard
  9
$CLAYER
  8
0
  9
$CELTYPE
  6
ByLayer
  9
$CECOLOR
 62
   256
  9
$CELTSCALE
 40
1.0
  9
$DISPSILH
 70
     0
  9
$DIMSCALE
 40
1.0
  9
$DIMASZ
 40
2.5
  9
$DIMEXO
 40
0.0
  9
$DIMDLI
 40
3.75
  9
$DIMRND
 40
0.0
  9
$DIMDLE
 40
0.0
  9
$DIMEXE
 40
1.0
  9
$DIMTP
 40
0.0
  9
$DIMTM
 40
0.0
  9
$DIMTXT
 40
2.5
  9
$DIMCEN
 40
2.5
  9
$DIMTSZ
 40
0.0
  9
$DIMTOL
 70
     0
  9
$DIMLIM
 70
     0
  9
$DIMTIH
 70
     1
  9
$DIMTOH
 70
     1
  9
$DIMSE1
 70
     0
  9
$DIMSE2
 70
     0
  9
$DIMTAD
 70
     1
  9
$DIMZIN
 70
     1
  9
$DIMBLK
  1

  9
$DIMASO
 70
     1
  9
$DIMSHO
 70
     1
  9
$DIMPOST
  1

  9
$DIMAPOST
  1

  9
$DIMALT
 70
     0
  9
$DIMALTD
 70
     3
  9
$DIMALTF
 40
0.0393700787
  9
$DIMLFAC
 40
1.0
  9
$DIMTOFL
 70
     1
  9
$DIMTVP
 40
0.0
  9
$DIMTIX
 70
     0
  9
$DIMSOXD
 70
     0
  9
$DIMSAH
 70
     0
  9
$DIMBLK1
  1

  9
$DIMBLK2
  1

  9
$DIMSTYLE
  2
ISO-25
  9
$DIMCLRD
 70
     0
  9
$DIMCLRE
 70
     0
  9
$DIMCLRT
 70
     0
  9
$DIMTFAC
 40
1.0
  9
$DIMGAP
 40
1.524
  9
$DIMJUST
 70
     0
  9
$DIMSD1
 70
     0
  9
$DIMSD2
 70
     0
  9
$DIMTOLJ
 70
     0
  9
$DIMTZIN
 70
     1
  9
$DIMALTZ
 70
     0
  9
$DIMALTTZ
 70
     0
  9
$DIMUPT
 70
     0
  9
$DIMDEC
 70
     2
  9
$DIMTDEC
 70
     2
  9
$DIMALTU
 70
     2
  9
$DIMALTTD
 70
     3
  9
$DIMTXSTY
  7
Standard
  9
$DIMAUNIT
 70
     0
  9
$DIMADEC
 70
     2
  9
$DIMALTRND
 40
0.0
  9
$DIMAZIN
 70
     0
  9
$DIMDSEP
 70
    44
  9
$DIMATFIT
 70
     3
  9
$DIMFRAC
 70
     0
  9
$DIMLDRBLK
  1

  9
$DIMLUNIT
 70
     2
  9
$DIMLWD
 70
    -2
  9
$DIMLWE
 70
    -2
  9
$DIMTMOVE
 70
     0
  9
$LUNITS
 70
     2
  9
$LUPREC
 70
     0
  9
$SKETCHINC
 40
1.0
  9
$FILLETRAD
 40
10.0
  9
$AUNITS
 70
     0
  9
$AUPREC
 70
     2
  9
$MENU
  1
.
  9
$ELEVATION
 40
0.0
  9
$PELEVATION
 40
0.0
  9
$THICKNESS
 40
0.0
  9
$LIMCHECK
 70
     0
  9
$CHAMFERA
 40
10.0
  9
$CHAMFERB
 40
10.0
  9
$CHAMFERC
 40
20.0
  9
$CHAMFERD
 40
0.0
  9
$SKPOLY
 70
     0
  9
$TDCREATE
 40
2455715.566863426
  9
$TDUCREATE
 40
2455715.483530093
  9
$TDUPDATE
 40
2455715.566863438
  9
$TDUUPDATE
 40
2455715.483530104
  9
$TDINDWG
 40
0.0000000116
  9
$TDUSRTIMER
 40
0.0000000116
  9
$USRTIMER
 70
     1
  9
$ANGBASE
 50
0.0
  9
$ANGDIR
 70
     0
  9
$PDMODE
 70
     0
  9
$PDSIZE
 40
-1.0
  9
$PLINEWID
 40
0.0
  9
$SPLFRAME
 70
     0
  9
$SPLINETYPE
 70
     6
  9
$SPLINESEGS
 70
     8
  9
$HANDSEED
  5
1D1
  9
$SURFTAB1
 70
     6
  9
$SURFTAB2
 70
     6
  9
$SURFTYPE
 70
     6
  9
$SURFU
 70
     6
  9
$SURFV
 70
     6
  9
$UCSBASE
  2

  9
$UCSNAME
  2

  9
$UCSORG
 10
0.0
 20
0.0
 30
0.0
  9
$UCSXDIR
 10
1.0
 20
0.0
 30
0.0
  9
$UCSYDIR
 10
0.0
 20
1.0
 30
0.0
  9
$UCSORTHOREF
  2

  9
$UCSORTHOVIEW
 70
     0
  9
$UCSORGTOP
 10
0.0
 20
0.0
 30
0.0
  9
$UCSORGBOTTOM
 10
0.0
 20
0.0
 30
0.0
  9
$UCSORGLEFT
 10
0.0
 20
0.0
 30
0.0
  9
$UCSORGRIGHT
 10
0.0
 20
0.0
 30
0.0
  9
$UCSORGFRONT
 10
0.0
 20
0.0
 30
0.0
  9
$UCSORGBACK
 10
0.0
 20
0.0
 30
0.0
  9
$PUCSBASE
  2

  9
$PUCSNAME
  2

  9
$PUCSORG
 10
0.0
 20
0.0
 30
0.0
  9
$PUCSXDIR
 10
1.0
 20
0.0
 30
0.0
  9
$PUCSYDIR
 10
0.0
 20
1.0
 30
0.0
  9
$PUCSORTHOREF
  2

  9
$PUCSORTHOVIEW
 70
     0
  9
$PUCSORGTOP
 10
0.0
 20
0.0
 30
0.0
  9
$PUCSORGBOTTOM
 10
0.0
 20
0.0
 30
0.0
  9
$PUCSORGLEFT
 10
0.0
 20
0.0
 30
0.0
  9
$PUCSORGRIGHT
 10
0.0
 20
0.0
 30
0.0
  9
$PUCSORGFRONT
 10
0.0
 20
0.0
 30
0.0
  9
$PUCSORGBACK
 10
0.0
 20
0.0
 30
0.0
  9
$USERI1
 70
     0
  9
$USERI2
 70
     0
  9
$USERI3
 70
     0
  9
$USERI4
 70
     0
  9
$USERI5
 70
     0
  9
$USERR1
 40
0.0
  9
$USERR2
 40
0.0
  9
$USERR3
 40
0.0
  9
$USERR4
 40
0.0
  9
$USERR5
 40
0.0
  9
$WORLDVIEW
 70
     1
  9
$SHADEDGE
 70
     3
  9
$SHADEDIF
 70
    70
  9
$TILEMODE
 70
     1
  9
$MAXACTVP
 70
    64
  9
$PINSBASE
 10
0.0
 20
0.0
 30
0.0
  9
$PLIMCHECK
 70
     0
  9
$PEXTMIN
 10
1.0000000000E+20
 20
1.0000000000E+20
 30
1.0000000000E+20
  9
$PEXTMAX
 10
-1.0000000000E+20
 20
-1.0000000000E+20
 30
-1.0000000000E+20
  9
$PLIMMIN
 10
0.0
 20
0.0
  9
$PLIMMAX
 10
420.0
 20
297.0
  9
$UNITMODE
 70
     0
  9
$VISRETAIN
 70
     1
  9
$PLINEGEN
 70
     0
  9
$PSLTSCALE
 70
     1
  9
$TREEDEPTH
 70
  3020
  9
$CMLSTYLE
  2
Standard
  9
$CMLJUST
 70
     0
  9
$CMLSCALE
 40
20.0
  9
$PROXYGRAPHICS
 70
     1
  9
$MEASUREMENT
 70
     1
  9
$CELWEIGHT
370
    -1
  9
$ENDCAPS
280
     0
  9
$JOINSTYLE
280
     0
  9
$LWDISPLAY
290
     1
  9
$INSUNITS
 70
     4
  9
$HYPERLINKBASE
  1

  9
$STYLESHEET
  1

  9
$XEDIT
290
     1
  9
$CEPSNTYPE
380
     0
  9
$PSTYLEMODE
290
     1
  9
$FINGERPRINTGUID
  2
{4DB44ABE-4E70-4CA5-A035-77AACED9D566}
  9
$VERSIONGUID
  2
{FAEB1C32-E019-11D5-929B-00C0DF256EC4}
  9
$EXTNAMES
290
     1
  9
$PSVPSCALE
 40
0.0
  9
$OLESTARTUP
290
     0
  0
ENDSEC
  0
SECTION
  2
CLASSES
  0
CLASS
  1
ACDBDICTIONARYWDFLT
  2
AcDbDictionaryWithDefault
  3
ObjectDBX Classes
 90
        0
280
     0
281
     0
  0
CLASS
  1
VISUALSTYLE
  2
AcDbVisualStyle
  3
ObjectDBX Classes
 90
     4095
280
     0
281
     0
  0
CLASS
  1
MATERIAL
  2
AcDbMaterial
  3
ObjectDBX Classes
 90
     1153
280
     0
281
     0
  0
CLASS
  1
ACDBPLACEHOLDER
  2
AcDbPlaceHolder
  3
ObjectDBX Classes
 90
        0
280
     0
281
     0
  0
CLASS
  1
LAYOUT
  2
AcDbLayout
  3
ObjectDBX Classes
 90
        0
280
     0
281
     0
  0
ENDSEC
  0
SECTION
  2
TABLES
  0
TABLE
  2
VPORT
  5
8
330
0
100
AcDbSymbolTable
 70
     1
  0
VPORT
  5
29
330
8
100
AcDbSymbolTableRecord
100
AcDbViewportTableRecord
  2
*Active
 70
     0
 10
0.0
 20
0.0
 11
1.0
 21
1.0
 12
105.0
 22
148.5
 13
0.0
 23
0.0
 14
10.0
 24
10.0
 15
10.0
 25
10.0
 16
0.0
 26
0.0
 36
1.0
 17
0.0
 27
0.0
 37
0.0
 40
297.0
 41
0.7070707071
 42
50.0
 43
0.0
 44
0.0
 50
0.0
 51
0.0
 71
     0
 72
  2000
 73
     1
 74
     3
 75
     0
 76
     0
 77
     0
 78
     0
281
     0
 65
     1
110
0.0
120
0.0
130
0.0
111
1.0
121
0.0
131
0.0
112
0.0
122
1.0
132
0.0
 79
     0
146
0.0
  0
ENDTAB
  0
TABLE
  2
LTYPE
  5
5
330
0
100
AcDbSymbolTable
 70
     6
  0
LTYPE
  5
14
330
5
100
AcDbSymbolTableRecord
100
AcDbLinetypeTableRecord
  2
ByBlock
 70
     0
  3

 72
    65
 73
     0
 40
0.0
  0
LTYPE
  5
15
330
5
100
AcDbSymbolTableRecord
100
AcDbLinetypeTableRecord
  2
ByLayer
 70
     0
  3

 72
    65
 73
     0
 40
0.0
  0
LTYPE
  5
16
330
5
100
AcDbSymbolTableRecord
100
AcDbLinetypeTableRecord
  2
Continuous
 70
     0
  3
Solid line
 72
    65
 73
     0
 40
0.0
  0
LTYPE
  5
3F
330
5
100
AcDbSymbolTableRecord
100
AcDbLinetypeTableRecord
  2
HIDDEN
 70
     0
  3
Hidden __ __ __ __ __ __ __ __ __ __ __ __ __ __
 72
    65
 73
     2
 40
1.905
 49
1.27
 74
     0
 49
-0.635
 74
     0
  0
LTYPE
  5
40
330
5
100
AcDbSymbolTableRecord
100
AcDbLinetypeTableRecord
  2
PHANTOM
 70
     0
  3
Phantom ______  __  __  ______  __  __  ______
 72
    65
 73
     6
 40
12.7
 49
6.35
 74
     0
 49
-1.27
 74
     0
 49
1.27
 74
     0
 49
-1.27
 74
     0
 49
1.27
 74
     0
 49
-1.27
 74
     0
  0
LTYPE
  5
41
330
5
100
AcDbSymbolTableRecord
100
AcDbLinetypeTableRecord
  2
CENTER
 70
     0
  3
Center ____ _ ____ _ ____ _ ____ _ ____ _ ____
 72
    65
 73
     4
 40
10.16
 49
6.35
 74
     0
 49
-1.27
 74
     0
 49
1.27
 74
     0
 49
-1.27
 74
     0
  0
LTYPE
  5
42
330
5
100
AcDbSymbolTableRecord
100
AcDbLinetypeTableRecord
  2
CENTERX2
 70
     0
  3
Center (2x) ________  __  ________  __  _____
 72
    65
 73
     4
 40
20.32
 49
12.7
 74
     0
 49
-2.54
 74
     0
 49
2.54
 74
     0
 49
-2.54
 74
     0
  0
LTYPE
  5
43
330
5
100
AcDbSymbolTableRecord
100
AcDbLinetypeTableRecord
  2
DOT2
 70
     0
  3
Dot (.5x) ........................................
 72
    65
 73
     2
 40
0.635
 49
0.0
 74
     0
 49
-0.635
 74
     0
  0
ENDTAB
  0
TABLE
  2
LAYER
  5
2
330
0
100
AcDbSymbolTable
 70
    26
  0
LAYER
  5
10
330
2
100
AcDbSymbolTableRecord
100
AcDbLayerTableRecord
  2
0
 70
     0
 62
     7
  6
Continuous
370
    -3
390
F
  0
LAYER
  5
44
330
2
100
AcDbSymbolTableRecord
100
AcDbLayerTableRecord
  2
SLD-0
 70
     0
 62
     1
  6
Continuous
370
    -3
390
F
  0
LAYER
  5
45
330
2
100
AcDbSymbolTableRecord
100
AcDbLayerTableRecord
  2
POČÁTEK
 70
     0
 62
    34
  6
Continuous
370
    -3
390
F
  0
LAYER
  5
46
330
2
100
AcDbSymbolTableRecord
100
AcDbLayerTableRecord
  2
OBRYS
 70
     0
 62
     7
  6
Continuous
370
    15
390
F
  0
LAYER
  5
47
330
2
100
AcDbSymbolTableRecord
100
AcDbLayerTableRecord
  2
SRAFY
 70
     0
 62
     2
  6
Continuous
370
    -1
390
F
  0
LAYER
  5
48
330
2
100
AcDbSymbolTableRecord
100
AcDbLayerTableRecord
  2
KOTY
 70
     0
 62
    82
  6
Continuous
370
    -3
390
F
  0
LAYER
  5
49
330
2
100
AcDbSymbolTableRecord
100
AcDbLayerTableRecord
  2
OSY
 70
     0
 62
     1
  6
CENTERX2
370
    -3
390
F
  0
LAYER
  5
4A
330
2
100
AcDbSymbolTableRecord
100
AcDbLayerTableRecord
  2
REZY
 70
     0
 62
     1
  6
CENTERX2
370
    -3
390
F
  0
LAYER
  5
4B
330
2
100
AcDbSymbolTableRecord
100
AcDbLayerTableRecord
  2
TENKA
 70
     0
 62
   131
  6
Continuous
370
    -3
390
F
  0
LAYER
  5
4C
330
2
100
AcDbSymbolTableRecord
100
AcDbLayerTableRecord
  2
TEXT
 70
     0
 62
    40
  6
Continuous
370
    -3
390
F
  0
LAYER
  5
4D
330
2
100
AcDbSymbolTableRecord
100
AcDbLayerTableRecord
  2
STŘEDOVÉ
 70
     0
 62
     1
  6
CENTERX2
370
    -3
390
F
  0
LAYER
  5
4E
330
2
100
AcDbSymbolTableRecord
100
AcDbLayerTableRecord
  2
OPRACOVÁNÍ
 70
     0
 62
   212
  6
Continuous
370
    -3
390
F
  0
LAYER
  5
4F
330
2
100
AcDbSymbolTableRecord
100
AcDbLayerTableRecord
  2
TABULKA
 70
     0
 62
    41
  6
Continuous
370
    -1
390
F
  0
LAYER
  5
50
330
2
100
AcDbSymbolTableRecord
100
AcDbLayerTableRecord
  2
GEOMETRICKÉ
 70
     0
 62
   212
  6
Continuous
370
    -3
390
F
  0
LAYER
  5
51
330
2
100
AcDbSymbolTableRecord
100
AcDbLayerTableRecord
  2
ČÁRY
 70
     0
 62
     2
  6
Continuous
370
    -3
390
F
  0
LAYER
  5
52
330
2
100
AcDbSymbolTableRecord
100
AcDbLayerTableRecord
  2
POPIS
 70
     0
 62
     3
  6
Continuous
370
    -1
390
F
  0
LAYER
  5
53
330
2
100
AcDbSymbolTableRecord
100
AcDbLayerTableRecord
  2
ZÁKLADNA
 70
     0
 62
   212
  6
Continuous
370
    -1
390
F
  0
LAYER
  5
54
330
2
100
AcDbSymbolTableRecord
100
AcDbLayerTableRecord
  2
STŘEDY
 70
     0
 62
     1
  6
CENTERX2
370
    -3
390
F
  0
LAYER
  5
55
330
2
100
AcDbSymbolTableRecord
100
AcDbLayerTableRecord
  2
KOLÍK
 70
     0
 62
     9
  6
Continuous
370
    -3
390
F
  0
LAYER
  5
56
330
2
100
AcDbSymbolTableRecord
100
AcDbLayerTableRecord
  2
PŘERUŠENÍ
 70
     0
 62
     4
  6
PHANTOM
370
    -3
390
F
  0
LAYER
  5
57
330
2
100
AcDbSymbolTableRecord
100
AcDbLayerTableRecord
  2
DETAIL
 70
     0
 62
     6
  6
Continuous
370
    -3
390
F
  0
LAYER
  5
58
330
2
100
AcDbSymbolTableRecord
100
AcDbLayerTableRecord
  2
ZÁVIT
 70
     0
 62
     2
  6
Continuous
370
    -3
390
F
  0
LAYER
  5
59
330
2
100
AcDbSymbolTableRecord
100
AcDbLayerTableRecord
  2
HRANICE
 70
     0
 62
     6
  6
Continuous
370
    -1
390
F
  0
LAYER
  5
5A
330
2
100
AcDbSymbolTableRecord
100
AcDbLayerTableRecord
  2
LOMENÉ
 70
     0
 62
     6
  6
Continuous
370
    -1
390
F
  0
LAYER
  5
5B
330
2
100
AcDbSymbolTableRecord
100
AcDbLayerTableRecord
  2
TEČNÉ
 70
     0
 62
     6
  6
Continuous
370
    -3
390
F
  0
LAYER
  5
5C
330
2
100
AcDbSymbolTableRecord
100
AcDbLayerTableRecord
  2
SKRYTE
 70
     0
 62
     4
  6
Continuous
370
    -3
390
F
  0
ENDTAB
  0
TABLE
  2
STYLE
  5
3
330
0
100
AcDbSymbolTable
 70
     3
  0
STYLE
  5
11
330
3
100
AcDbSymbolTableRecord
100
AcDbTextStyleTableRecord
  2
Standard
 70
     0
 40
0.0
 41
1.0
 50
0.0
 71
     0
 42
2.5
  3
txt
  4

  0
STYLE
  5
5D
330
3
100
AcDbSymbolTableRecord
100
AcDbTextStyleTableRecord
  2
SLDTEXTSTYLE0
 70
     0
 40
0.0
 41
0.75
 50
0.0
 71
     0
 42
0.2
  3
TXT
  4

  0
STYLE
  5
5F
330
3
100
AcDbSymbolTableRecord
100
AcDbTextStyleTableRecord
  2
SLDTEXTSTYLE1
 70
     0
 40
0.0
 41
0.6875
 50
0.0
 71
     0
 42
0.2
  3
TXT
  4

  0
ENDTAB
  0
TABLE
  2
VIEW
  5
6
330
0
100
AcDbSymbolTable
 70
     0
  0
ENDTAB
  0
TABLE
  2
UCS
  5
7
330
0
100
AcDbSymbolTable
 70
     0
  0
ENDTAB
  0
TABLE
  2
APPID
  5
9
330
0
100
AcDbSymbolTable
 70
     1
  0
APPID
  5
12
330
9
100
AcDbSymbolTableRecord
100
AcDbRegAppTableRecord
  2
ACAD
 70
     0
  0
ENDTAB
  0
TABLE
  2
DIMSTYLE
  5
A
330
0
100
AcDbSymbolTable
 70
     4
100
AcDbDimStyleTable
  0
DIMSTYLE
105
27
330
A
100
AcDbSymbolTableRecord
100
AcDbDimStyleTableRecord
  2
ISO-25
 70
     0
 41
2.5
 42
0.625
 43
3.75
 44
1.25
 73
     0
 74
     0
 77
     1
 78
     8
140
2.5
141
2.5
143
0.0393700787
147
0.625
171
     3
172
     1
178
     0
271
     2
272
     2
274
     3
278
    44
283
     0
284
     8
340
11
  0
DIMSTYLE
105
D2
102
{ACAD_REACTORS
330
D1
330
FE
330
108
330
110
330
11A
330
17F
330
189
330
19F
330
1A9
102
}
330
A
100
AcDbSymbolTableRecord
100
AcDbDimStyleTableRecord
  2
SLDDIMSTYLE0
 70
     0
 41
2.5
 44
0.0
 45
0.000000001
 73
     0
 74
     0
 77
     1
 78
    12
 79
     3
140
2.5
147
0.625
173
     1
178
     0
271
     0
272
     2
276
     2
284
    12
340
5D
  0
DIMSTYLE
105
DD
102
{ACAD_REACTORS
330
DC
330
E7
330
1B3
330
1BD
330
1C7
102
}
330
A
100
AcDbSymbolTableRecord
100
AcDbDimStyleTableRecord
  2
SLDDIMSTYLE1
 70
     0
 41
2.5
 44
0.0
 45
0.000000001
 73
     0
 74
     0
 77
     1
 78
    12
 79
     3
140
2.5
147
0.625
173
     1
178
     0
271
     1
272
     2
276
     2
284
    12
340
5D
  0
DIMSTYLE
105
F2
102
{ACAD_REACTORS
330
F1
330
193
102
}
330
A
100
AcDbSymbolTableRecord
100
AcDbDimStyleTableRecord
  2
SLDDIMSTYLE2
 70
     0
 41
2.5
 44
0.0
 45
0.000000001
 73
     0
 74
     0
 77
     1
 78
    12
 79
     3
140
2.5
147
0.625
172
     1
173
     1
178
     0
271
     0
272
     2
276
     2
284
    12
289
     0
340
5D
  0
ENDTAB
  0
TABLE
  2
BLOCK_RECORD
  5
1
330
0
100
AcDbSymbolTable
 70
    17
  0
BLOCK_RECORD
  5
1F
330
1
100
AcDbSymbolTableRecord
100
AcDbBlockTableRecord
  2
*Model_Space
340
22
  0
BLOCK_RECORD
  5
1B
330
1
100
AcDbSymbolTableRecord
100
AcDbBlockTableRecord
  2
*Paper_Space
340
1E
  0
BLOCK_RECORD
  5
23
330
1
100
AcDbSymbolTableRecord
100
AcDbBlockTableRecord
  2
*Paper_Space0
340
26
  0
BLOCK_RECORD
  5
D3
330
1
100
AcDbSymbolTableRecord
100
AcDbBlockTableRecord
  2
*D1
340
0
  0
BLOCK_RECORD
  5
DE
330
1
100
AcDbSymbolTableRecord
100
AcDbBlockTableRecord
  2
*D2
340
0
  0
BLOCK_RECORD
  5
E8
330
1
100
AcDbSymbolTableRecord
100
AcDbBlockTableRecord
  2
*D3
340
0
  0
BLOCK_RECORD
  5
F3
330
1
100
AcDbSymbolTableRecord
100
AcDbBlockTableRecord
  2
*D4
340
0
  0
BLOCK_RECORD
  5
FF
330
1
100
AcDbSymbolTableRecord
100
AcDbBlockTableRecord
  2
*D5
340
0
  0
BLOCK_RECORD
  5
109
330
1
100
AcDbSymbolTableRecord
100
AcDbBlockTableRecord
  2
*D6
340
0
  0
BLOCK_RECORD
  5
111
330
1
100
AcDbSymbolTableRecord
100
AcDbBlockTableRecord
  2
*D7
340
0
  0
BLOCK_RECORD
  5
11B
330
1
100
AcDbSymbolTableRecord
100
AcDbBlockTableRecord
  2
*D8
340
0
  0
BLOCK_RECORD
  5
180
330
1
100
AcDbSymbolTableRecord
100
AcDbBlockTableRecord
  2
*D9
340
0
  0
BLOCK_RECORD
  5
18A
330
1
100
AcDbSymbolTableRecord
100
AcDbBlockTableRecord
  2
*D10
340
0
  0
BLOCK_RECORD
  5
194
330
1
100
AcDbSymbolTableRecord
100
AcDbBlockTableRecord
  2
*D11
340
0
  0
BLOCK_RECORD
  5
1A0
330
1
100
AcDbSymbolTableRecord
100
AcDbBlockTableRecord
  2
*D12
340
0
  0
BLOCK_RECORD
  5
1AA
330
1
100
AcDbSymbolTableRecord
100
AcDbBlockTableRecord
  2
*D13
340
0
  0
BLOCK_RECORD
  5
1B4
330
1
100
AcDbSymbolTableRecord
100
AcDbBlockTableRecord
  2
*D14
340
0
  0
BLOCK_RECORD
  5
1BE
330
1
100
AcDbSymbolTableRecord
100
AcDbBlockTableRecord
  2
*D15
340
0
  0
BLOCK_RECORD
  5
1C8
330
1
100
AcDbSymbolTableRecord
100
AcDbBlockTableRecord
  2
*D16
340
0
  0
ENDTAB
  0
ENDSEC
  0
SECTION
  2
BLOCKS
  0
BLOCK
  5
20
330
1F
100
AcDbEntity
  8
0
100
AcDbBlockBegin
  2
*Model_Space
 70
     0
 10
0.0
 20
0.0
 30
0.0
  3
*Model_Space
  1

  0
ENDBLK
  5
21
330
1F
100
AcDbEntity
  8
0
100
AcDbBlockEnd
  0
BLOCK
  5
1C
330
1B
100
AcDbEntity
 67
     1
  8
0
100
AcDbBlockBegin
  2
*Paper_Space
 70
     0
 10
0.0
 20
0.0
 30
0.0
  3
*Paper_Space
  1

  0
ENDBLK
  5
1D
330
1B
100
AcDbEntity
 67
     1
  8
0
100
AcDbBlockEnd
  0
BLOCK
  5
24
330
23
100
AcDbEntity
  8
0
100
AcDbBlockBegin
  2
*Paper_Space0
 70
     0
 10
0.0
 20
0.0
 30
0.0
  3
*Paper_Space0
  1

  0
ENDBLK
  5
25
330
23
100
AcDbEntity
  8
0
100
AcDbBlockEnd
  0
BLOCK
  5
D4
330
D3
100
AcDbEntity
  8
0
100
AcDbBlockBegin
  2
*D1
 70
     1
 10
0.0
 20
0.0
 30
0.0
  3
*D1
  1

  0
SOLID
  5
D6
330
D3
100
AcDbEntity
  8
KOTY
100
AcDbTrace
 10
28.9048633224
 20
261.1162933529
 30
0.0
 11
28.5202479378
 21
258.6162933529
 31
0.0
 12
29.289478707
 22
258.6162933529
 32
0.0
 13
29.289478707
 23
258.6162933529
 33
0.0
  0
SOLID
  5
D7
330
D3
100
AcDbEntity
  8
KOTY
100
AcDbTrace
 10
28.9048633224
 20
208.1162933529
 30
0.0
 11
29.289478707
 21
210.6162933529
 31
0.0
 12
28.5202479378
 22
210.6162933529
 32
0.0
 13
28.5202479378
 23
210.6162933529
 33
0.0
  0
LINE
  5
D8
330
D3
100
AcDbEntity
  8
KOTY
100
AcDbLine
 10
41.4048633224
 20
261.1162933529
 30
0.0
 11
27.9048633224
 21
261.1162933529
 31
0.0
  0
LINE
  5
D9
330
D3
100
AcDbEntity
  8
KOTY
100
AcDbLine
 10
41.4048633224
 20
208.1162933529
 30
0.0
 11
27.9048633224
 21
208.1162933529
 31
0.0
  0
LINE
  5
DA
330
D3
100
AcDbEntity
  8
KOTY
100
AcDbLine
 10
28.9048633224
 20
261.1162933529
 30
0.0
 11
28.9048633224
 21
208.1162933529
 31
0.0
  0
MTEXT
  5
DB
330
D3
100
AcDbEntity
  8
KOTY
100
AcDbMText
 10
25.6821940312
 20
231.7534459427
 30
-49.9
 40
2.5
 41
0.0
 71
     1
 72
     1
  1
53
  7
SLDTEXTSTYLE0
 11
-7.044195017643634E-15
 21
1.0
 31
0.0
 73
     1
 44
1.0
  0
ENDBLK
  5
D5
330
D3
100
AcDbEntity
  8
0
100
AcDbBlockEnd
  0
BLOCK
  5
DF
330
DE
100
AcDbEntity
  8
0
100
AcDbBlockBegin
  2
*D2
 70
     1
 10
0.0
 20
0.0
 30
0.0
  3
*D2
  1

  0
SOLID
  5
E1
330
DE
100
AcDbEntity
  8
KOTY
100
AcDbTrace
 10
34.9048633224
 20
261.1162933529
 30
0.0
 11
34.5202479378
 21
258.6162933529
 31
0.0
 12
35.289478707
 22
258.6162933529
 32
0.0
 13
35.289478707
 23
258.6162933529
 33
0.0
  0
SOLID
  5
E2
330
DE
100
AcDbEntity
  8
KOTY
100
AcDbTrace
 10
34.9048633224
 20
234.9162933529
 30
0.0
 11
35.289478707
 21
237.4162933529
 31
0.0
 12
34.5202479378
 22
237.4162933529
 32
0.0
 13
34.5202479378
 23
237.4162933529
 33
0.0
  0
LINE
  5
E3
330
DE
100
AcDbEntity
  8
KOTY
100
AcDbLine
 10
41.4048633224
 20
261.1162933529
 30
0.0
 11
33.9048633224
 21
261.1162933529
 31
0.0
  0
LINE
  5
E4
330
DE
100
AcDbEntity
  8
KOTY
100
AcDbLine
 10
42.1048633224
 20
234.9162933529
 30
0.0
 11
33.9048633224
 21
234.9162933529
 31
0.0
  0
LINE
  5
E5
330
DE
100
AcDbEntity
  8
KOTY
100
AcDbLine
 10
34.9048633224
 20
261.1162933529
 30
0.0
 11
34.9048633224
 21
234.9162933529
 31
0.0
  0
MTEXT
  5
E6
330
DE
100
AcDbEntity
  8
KOTY
100
AcDbMText
 10
31.6821940312
 20
243.7680295728
 30
-49.9
 40
2.5
 41
0.0
 71
     1
 72
     1
  1
26,2
  7
SLDTEXTSTYLE0
 11
-6.156016597943509E-15
 21
1.0
 31
0.0
 73
     1
 44
1.0
  0
ENDBLK
  5
E0
330
DE
100
AcDbEntity
  8
0
100
AcDbBlockEnd
  0
BLOCK
  5
E9
330
E8
100
AcDbEntity
  8
0
100
AcDbBlockBegin
  2
*D3
 70
     1
 10
0.0
 20
0.0
 30
0.0
  3
*D3
  1

  0
SOLID
  5
EB
330
E8
100
AcDbEntity
  8
KOTY
100
AcDbTrace
 10
34.9048633224
 20
233.8162933529
 30
0.0
 11
34.5202479378
 21
231.3162933529
 31
0.0
 12
35.289478707
 22
231.3162933529
 32
0.0
 13
35.289478707
 23
231.3162933529
 33
0.0
  0
SOLID
  5
EC
330
E8
100
AcDbEntity
  8
KOTY
100
AcDbTrace
 10
34.9048633224
 20
209.3162933529
 30
0.0
 11
35.289478707
 21
211.8162933529
 31
0.0
 12
34.5202479378
 22
211.8162933529
 32
0.0
 13
34.5202479378
 23
211.8162933529
 33
0.0
  0
LINE
  5
ED
330
E8
100
AcDbEntity
  8
KOTY
100
AcDbLine
 10
42.1048633224
 20
233.8162933529
 30
0.0
 11
33.9048633224
 21
233.8162933529
 31
0.0
  0
LINE
  5
EE
330
E8
100
AcDbEntity
  8
KOTY
100
AcDbLine
 10
42.1048633224
 20
209.3162933529
 30
0.0
 11
33.9048633224
 21
209.3162933529
 31
0.0
  0
LINE
  5
EF
330
E8
100
AcDbEntity
  8
KOTY
100
AcDbLine
 10
34.9048633224
 20
233.8162933529
 30
0.0
 11
34.9048633224
 21
209.3162933529
 31
0.0
  0
MTEXT
  5
F0
330
E8
100
AcDbEntity
  8
KOTY
100
AcDbMText
 10
31.6821940312
 20
217.3180295728
 30
-49.9
 40
2.5
 41
0.0
 71
     1
 72
     1
  1
24,5
  7
SLDTEXTSTYLE0
 11
-7.044195017643634E-15
 21
1.0
 31
0.0
 73
     1
 44
1.0
  0
ENDBLK
  5
EA
330
E8
100
AcDbEntity
  8
0
100
AcDbBlockEnd
  0
BLOCK
  5
F4
330
F3
100
AcDbEntity
  8
0
100
AcDbBlockBegin
  2
*D4
 70
     1
 10
0.0
 20
0.0
 30
0.0
  3
*D4
  1

  0
SOLID
  5
F6
330
F3
100
AcDbEntity
  8
KOTY
100
AcDbTrace
 10
44.4048633224
 20
267.1162933529
 30
0.0
 11
41.9048633224
 21
267.5009087375
 31
0.0
 12
41.9048633224
 22
266.7316779682
 32
0.0
 13
41.9048633224
 23
266.7316779682
 33
0.0
  0
SOLID
  5
F7
330
F3
100
AcDbEntity
  8
KOTY
100
AcDbTrace
 10
59.4048633224
 20
267.1162933529
 30
0.0
 11
61.9048633224
 21
266.7316779682
 31
0.0
 12
61.9048633224
 22
267.5009087375
 32
0.0
 13
61.9048633224
 23
267.5009087375
 33
0.0
  0
LINE
  5
F8
330
F3
100
AcDbEntity
  8
KOTY
100
AcDbLine
 10
44.4048633224
 20
260.6162933529
 30
0.0
 11
44.4048633224
 21
268.1162933529
 31
0.0
  0
LINE
  5
F9
330
F3
100
AcDbEntity
  8
KOTY
100
AcDbLine
 10
59.4048633224
 20
260.6162933529
 30
0.0
 11
59.4048633224
 21
268.1162933529
 31
0.0
  0
LINE
  5
FA
330
F3
100
AcDbEntity
  8
KOTY
100
AcDbLine
 10
44.4048633224
 20
267.1162933529
 30
0.0
 11
39.5971710147
 21
267.1162933529
 31
0.0
  0
LINE
  5
FB
330
F3
100
AcDbEntity
  8
KOTY
100
AcDbLine
 10
44.4048633224
 20
267.1162933529
 30
0.0
 11
59.4048633224
 21
267.1162933529
 31
0.0
  0
LINE
  5
FC
330
F3
100
AcDbEntity
  8
KOTY
100
AcDbLine
 10
59.4048633224
 20
267.1162933529
 30
0.0
 11
64.2125556301
 21
267.1162933529
 31
0.0
  0
MTEXT
  5
FD
330
F3
100
AcDbEntity
  8
KOTY
100
AcDbMText
 10
49.0420159122
 20
270.3389626441
 30
-49.9
 40
2.5
 41
0.0
 71
     1
 72
     1
  1
15
  7
SLDTEXTSTYLE0
 73
     1
 44
1.0
  0
ENDBLK
  5
F5
330
F3
100
AcDbEntity
  8
0
100
AcDbBlockEnd
  0
BLOCK
  5
100
330
FF
100
AcDbEntity
  8
0
100
AcDbBlockBegin
  2
*D5
 70
     1
 10
0.0
 20
0.0
 30
0.0
  3
*D5
  1

  0
SOLID
  5
102
330
FF
100
AcDbEntity
  8
KOTY
100
AcDbTrace
 10
40.9048633224
 20
273.1162933529
 30
0.0
 11
43.4048633224
 21
272.7316779682
 31
0.0
 12
43.4048633224
 22
273.5009087375
 32
0.0
 13
43.4048633224
 23
273.5009087375
 33
0.0
  0
SOLID
  5
103
330
FF
100
AcDbEntity
  8
KOTY
100
AcDbTrace
 10
62.9048633224
 20
273.1162933529
 30
0.0
 11
60.4048633224
 21
273.5009087375
 31
0.0
 12
60.4048633224
 22
272.7316779682
 32
0.0
 13
60.4048633224
 23
272.7316779682
 33
0.0
  0
LINE
  5
104
330
FF
100
AcDbEntity
  8
KOTY
100
AcDbLine
 10
40.9048633224
 20
260.6162933529
 30
0.0
 11
40.9048633224
 21
274.1162933529
 31
0.0
  0
LINE
  5
105
330
FF
100
AcDbEntity
  8
KOTY
100
AcDbLine
 10
62.9048633224
 20
259.7662933529
 30
0.0
 11
62.9048633224
 21
274.1162933529
 31
0.0
  0
LINE
  5
106
330
FF
100
AcDbEntity
  8
KOTY
100
AcDbLine
 10
40.9048633224
 20
273.1162933529
 30
0.0
 11
62.9048633224
 21
273.1162933529
 31
0.0
  0
MTEXT
  5
107
330
FF
100
AcDbEntity
  8
KOTY
100
AcDbMText
 10
49.0420159122
 20
276.3389626441
 30
-49.9
 40
2.5
 41
0.0
 71
     1
 72
     1
  1
22
  7
SLDTEXTSTYLE0
 73
     1
 44
1.0
  0
ENDBLK
  5
101
330
FF
100
AcDbEntity
  8
0
100
AcDbBlockEnd
  0
BLOCK
  5
10A
330
109
100
AcDbEntity
  8
0
100
AcDbBlockBegin
  2
*D6
 70
     1
 10
0.0
 20
0.0
 30
0.0
  3
*D6
  1

  0
SOLID
  5
10C
330
109
100
AcDbEntity
  8
KOTY
100
AcDbTrace
 10
72.2214314342
 20
259.7662933529
 30
0.0
 11
71.8368160496
 21
257.2662933529
 31
0.0
 12
72.6060468189
 22
257.2662933529
 32
0.0
 13
72.6060468189
 23
257.2662933529
 33
0.0
  0
SOLID
  5
10D
330
109
100
AcDbEntity
  8
KOTY
100
AcDbTrace
 10
72.2214314342
 20
209.4662933529
 30
0.0
 11
72.6060468189
 21
211.9662933529
 31
0.0
 12
71.8368160496
 22
211.9662933529
 32
0.0
 13
71.8368160496
 23
211.9662933529
 33
0.0
  0
LINE
  5
10E
330
109
100
AcDbEntity
  8
KOTY
100
AcDbLine
 10
72.2214314342
 20
259.7662933529
 30
0.0
 11
72.2214314342
 21
209.4662933529
 31
0.0
  0
MTEXT
  5
10F
330
109
100
AcDbEntity
  8
KOTY
100
AcDbMText
 10
68.998762143
 20
231.7534459427
 30
-49.9
 40
2.5
 41
0.0
 71
     1
 72
     1
  1
50
  7
SLDTEXTSTYLE0
 11
-7.044195017643634E-15
 21
1.0
 31
0.0
 73
     1
 44
1.0
  0
ENDBLK
  5
10B
330
109
100
AcDbEntity
  8
0
100
AcDbBlockEnd
  0
BLOCK
  5
112
330
111
100
AcDbEntity
  8
0
100
AcDbBlockBegin
  2
*D7
 70
     1
 10
0.0
 20
0.0
 30
0.0
  3
*D7
  1

  0
SOLID
  5
114
330
111
100
AcDbEntity
  8
KOTY
100
AcDbTrace
 10
88.9048633224
 20
254.1162933529
 30
0.0
 11
88.5202479378
 21
251.6162933529
 31
0.0
 12
89.289478707
 22
251.6162933529
 32
0.0
 13
89.289478707
 23
251.6162933529
 33
0.0
  0
SOLID
  5
115
330
111
100
AcDbEntity
  8
KOTY
100
AcDbTrace
 10
88.9048633224
 20
215.1162933529
 30
0.0
 11
89.289478707
 21
217.6162933529
 31
0.0
 12
88.5202479378
 22
217.6162933529
 32
0.0
 13
88.5202479378
 23
217.6162933529
 33
0.0
  0
LINE
  5
116
330
111
100
AcDbEntity
  8
KOTY
100
AcDbLine
 10
82.4048633224
 20
254.1162933529
 30
0.0
 11
89.9048633224
 21
254.1162933529
 31
0.0
  0
LINE
  5
117
330
111
100
AcDbEntity
  8
KOTY
100
AcDbLine
 10
82.4048633224
 20
215.1162933529
 30
0.0
 11
89.9048633224
 21
215.1162933529
 31
0.0
  0
LINE
  5
118
330
111
100
AcDbEntity
  8
KOTY
100
AcDbLine
 10
88.9048633224
 20
254.1162933529
 30
0.0
 11
88.9048633224
 21
215.1162933529
 31
0.0
  0
MTEXT
  5
119
330
111
100
AcDbEntity
  8
KOTY
100
AcDbMText
 10
85.6821940312
 20
231.7534459427
 30
-49.9
 40
2.5
 41
0.0
 71
     1
 72
     1
  1
39
  7
SLDTEXTSTYLE0
 11
-7.044195017643634E-15
 21
1.0
 31
0.0
 73
     1
 44
1.0
  0
ENDBLK
  5
113
330
111
100
AcDbEntity
  8
0
100
AcDbBlockEnd
  0
BLOCK
  5
11C
330
11B
100
AcDbEntity
  8
0
100
AcDbBlockBegin
  2
*D8
 70
     1
 10
0.0
 20
0.0
 30
0.0
  3
*D8
  1

  0
SOLID
  5
11E
330
11B
100
AcDbEntity
  8
KOTY
100
AcDbTrace
 10
82.9048633224
 20
202.1162933529
 30
0.0
 11
80.4048633224
 21
202.5009087375
 31
0.0
 12
80.4048633224
 22
201.7316779682
 32
0.0
 13
80.4048633224
 23
201.7316779682
 33
0.0
  0
SOLID
  5
11F
330
11B
100
AcDbEntity
  8
KOTY
100
AcDbTrace
 10
40.9048633224
 20
202.1162933529
 30
0.0
 11
43.4048633224
 21
201.7316779682
 31
0.0
 12
43.4048633224
 22
202.5009087375
 32
0.0
 13
43.4048633224
 23
202.5009087375
 33
0.0
  0
LINE
  5
120
330
11B
100
AcDbEntity
  8
KOTY
100
AcDbLine
 10
82.9048633224
 20
208.6162933529
 30
0.0
 11
82.9048633224
 21
201.1162933529
 31
0.0
  0
LINE
  5
121
330
11B
100
AcDbEntity
  8
KOTY
100
AcDbLine
 10
40.9048633224
 20
208.6162933529
 30
0.0
 11
40.9048633224
 21
201.1162933529
 31
0.0
  0
LINE
  5
122
330
11B
100
AcDbEntity
  8
KOTY
100
AcDbLine
 10
82.9048633224
 20
202.1162933529
 30
0.0
 11
40.9048633224
 21
202.1162933529
 31
0.0
  0
MTEXT
  5
123
330
11B
100
AcDbEntity
  8
KOTY
100
AcDbMText
 10
59.0420159122
 20
205.3389626441
 30
-49.9
 40
2.5
 41
0.0
 71
     1
 72
     1
  1
42
  7
SLDTEXTSTYLE0
 73
     1
 44
1.0
  0
ENDBLK
  5
11D
330
11B
100
AcDbEntity
  8
0
100
AcDbBlockEnd
  0
BLOCK
  5
181
330
180
100
AcDbEntity
  8
0
100
AcDbBlockBegin
  2
*D9
 70
     1
 10
0.0
 20
0.0
 30
0.0
  3
*D9
  1

  0
SOLID
  5
183
330
180
100
AcDbEntity
  8
KOTY
100
AcDbTrace
 10
32.5527835052
 20
159.9050515464
 30
0.0
 11
32.1681681205
 21
157.4050515464
 31
0.0
 12
32.9373988898
 22
157.4050515464
 32
0.0
 13
32.9373988898
 23
157.4050515464
 33
0.0
  0
SOLID
  5
184
330
180
100
AcDbEntity
  8
KOTY
100
AcDbTrace
 10
32.5527835052
 20
106.9050515464
 30
0.0
 11
32.9373988898
 21
109.4050515464
 31
0.0
 12
32.1681681205
 22
109.4050515464
 32
0.0
 13
32.1681681205
 23
109.4050515464
 33
0.0
  0
LINE
  5
185
330
180
100
AcDbEntity
  8
KOTY
100
AcDbLine
 10
62.0527835052
 20
159.9050515464
 30
0.0
 11
31.5527835052
 21
159.9050515464
 31
0.0
  0
LINE
  5
186
330
180
100
AcDbEntity
  8
KOTY
100
AcDbLine
 10
45.0527835052
 20
106.9050515464
 30
0.0
 11
31.5527835052
 21
106.9050515464
 31
0.0
  0
LINE
  5
187
330
180
100
AcDbEntity
  8
KOTY
100
AcDbLine
 10
32.5527835052
 20
159.9050515464
 30
0.0
 11
32.5527835052
 21
106.9050515464
 31
0.0
  0
MTEXT
  5
188
330
180
100
AcDbEntity
  8
KOTY
100
AcDbMText
 10
29.3301142139
 20
130.5422041362
 30
-49.9
 40
2.5
 41
0.0
 71
     1
 72
     1
  1
53
  7
SLDTEXTSTYLE0
 11
-7.044195017643634E-15
 21
1.0
 31
0.0
 73
     1
 44
1.0
  0
ENDBLK
  5
182
330
180
100
AcDbEntity
  8
0
100
AcDbBlockEnd
  0
BLOCK
  5
18B
330
18A
100
AcDbEntity
  8
0
100
AcDbBlockBegin
  2
*D10
 70
     1
 10
0.0
 20
0.0
 30
0.0
  3
*D10
  1

  0
SOLID
  5
18D
330
18A
100
AcDbEntity
  8
KOTY
100
AcDbTrace
 10
44.5527835052
 20
94.9050515464
 30
0.0
 11
47.0527835052
 21
94.5204361618
 31
0.0
 12
47.0527835052
 22
95.289666931
 32
0.0
 13
47.0527835052
 23
95.289666931
 33
0.0
  0
SOLID
  5
18E
330
18A
100
AcDbEntity
  8
KOTY
100
AcDbTrace
 10
83.5527835052
 20
94.9050515464
 30
0.0
 11
81.0527835052
 21
95.289666931
 31
0.0
 12
81.0527835052
 22
94.5204361618
 32
0.0
 13
81.0527835052
 23
94.5204361618
 33
0.0
  0
LINE
  5
18F
330
18A
100
AcDbEntity
  8
KOTY
100
AcDbLine
 10
44.5527835052
 20
107.4050515464
 30
0.0
 11
44.5527835052
 21
93.9050515464
 31
0.0
  0
LINE
  5
190
330
18A
100
AcDbEntity
  8
KOTY
100
AcDbLine
 10
83.5527835052
 20
107.4050515464
 30
0.0
 11
83.5527835052
 21
93.9050515464
 31
0.0
  0
LINE
  5
191
330
18A
100
AcDbEntity
  8
KOTY
100
AcDbLine
 10
44.5527835052
 20
94.9050515464
 30
0.0
 11
83.5527835052
 21
94.9050515464
 31
0.0
  0
MTEXT
  5
192
330
18A
100
AcDbEntity
  8
KOTY
100
AcDbMText
 10
61.189936095
 20
98.1277208376
 30
-49.9
 40
2.5
 41
0.0
 71
     1
 72
     1
  1
39
  7
SLDTEXTSTYLE0
 73
     1
 44
1.0
  0
ENDBLK
  5
18C
330
18A
100
AcDbEntity
  8
0
100
AcDbBlockEnd
  0
BLOCK
  5
195
330
194
100
AcDbEntity
  8
0
100
AcDbBlockBegin
  2
*D11
 70
     1
 10
0.0
 20
0.0
 30
0.0
  3
*D11
  1

  0
SOLID
  5
197
330
194
100
AcDbEntity
  8
KOTY
100
AcDbTrace
 10
65.0527835052
 20
165.9050515464
 30
0.0
 11
62.5527835052
 21
166.289666931
 31
0.0
 12
62.5527835052
 22
165.5204361618
 32
0.0
 13
62.5527835052
 23
165.5204361618
 33
0.0
  0
SOLID
  5
198
330
194
100
AcDbEntity
  8
KOTY
100
AcDbTrace
 10
80.0527835052
 20
165.9050515464
 30
0.0
 11
82.5527835052
 21
165.5204361618
 31
0.0
 12
82.5527835052
 22
166.289666931
 32
0.0
 13
82.5527835052
 23
166.289666931
 33
0.0
  0
LINE
  5
199
330
194
100
AcDbEntity
  8
KOTY
100
AcDbLine
 10
65.0527835052
 20
159.4050515464
 30
0.0
 11
65.0527835052
 21
166.9050515464
 31
0.0
  0
LINE
  5
19A
330
194
100
AcDbEntity
  8
KOTY
100
AcDbLine
 10
80.0527835052
 20
159.4050515464
 30
0.0
 11
80.0527835052
 21
166.9050515464
 31
0.0
  0
LINE
  5
19B
330
194
100
AcDbEntity
  8
KOTY
100
AcDbLine
 10
65.0527835052
 20
165.9050515464
 30
0.0
 11
60.2450911975
 21
165.9050515464
 31
0.0
  0
LINE
  5
19C
330
194
100
AcDbEntity
  8
KOTY
100
AcDbLine
 10
65.0527835052
 20
165.9050515464
 30
0.0
 11
80.0527835052
 21
165.9050515464
 31
0.0
  0
LINE
  5
19D
330
194
100
AcDbEntity
  8
KOTY
100
AcDbLine
 10
80.0527835052
 20
165.9050515464
 30
0.0
 11
84.8604758128
 21
165.9050515464
 31
0.0
  0
MTEXT
  5
19E
330
194
100
AcDbEntity
  8
KOTY
100
AcDbMText
 10
69.689936095
 20
169.1277208376
 30
-49.9
 40
2.5
 41
0.0
 71
     1
 72
     1
  1
15
  7
SLDTEXTSTYLE0
 73
     1
 44
1.0
  0
ENDBLK
  5
196
330
194
100
AcDbEntity
  8
0
100
AcDbBlockEnd
  0
BLOCK
  5
1A1
330
1A0
100
AcDbEntity
  8
0
100
AcDbBlockBegin
  2
*D12
 70
     1
 10
0.0
 20
0.0
 30
0.0
  3
*D12
  1

  0
SOLID
  5
1A3
330
1A0
100
AcDbEntity
  8
KOTY
100
AcDbTrace
 10
83.5527835052
 20
171.9050515464
 30
0.0
 11
81.0527835052
 21
172.289666931
 31
0.0
 12
81.0527835052
 22
171.5204361618
 32
0.0
 13
81.0527835052
 23
171.5204361618
 33
0.0
  0
SOLID
  5
1A4
330
1A0
100
AcDbEntity
  8
KOTY
100
AcDbTrace
 10
61.5527835052
 20
171.9050515464
 30
0.0
 11
64.0527835052
 21
171.5204361618
 31
0.0
 12
64.0527835052
 22
172.289666931
 32
0.0
 13
64.0527835052
 23
172.289666931
 33
0.0
  0
LINE
  5
1A5
330
1A0
100
AcDbEntity
  8
KOTY
100
AcDbLine
 10
83.5527835052
 20
159.4050515464
 30
0.0
 11
83.5527835052
 21
172.9050515464
 31
0.0
  0
LINE
  5
1A6
330
1A0
100
AcDbEntity
  8
KOTY
100
AcDbLine
 10
61.5527835052
 20
159.4050515464
 30
0.0
 11
61.5527835052
 21
172.9050515464
 31
0.0
  0
LINE
  5
1A7
330
1A0
100
AcDbEntity
  8
KOTY
100
AcDbLine
 10
83.5527835052
 20
171.9050515464
 30
0.0
 11
61.5527835052
 21
171.9050515464
 31
0.0
  0
MTEXT
  5
1A8
330
1A0
100
AcDbEntity
  8
KOTY
100
AcDbMText
 10
69.689936095
 20
175.1277208376
 30
-49.9
 40
2.5
 41
0.0
 71
     1
 72
     1
  1
22
  7
SLDTEXTSTYLE0
 73
     1
 44
1.0
  0
ENDBLK
  5
1A2
330
1A0
100
AcDbEntity
  8
0
100
AcDbBlockEnd
  0
BLOCK
  5
1AB
330
1AA
100
AcDbEntity
  8
0
100
AcDbBlockBegin
  2
*D13
 70
     1
 10
0.0
 20
0.0
 30
0.0
  3
*D13
  1

  0
SOLID
  5
1AD
330
1AA
100
AcDbEntity
  8
KOTY
100
AcDbTrace
 10
38.5527835052
 20
159.9050515464
 30
0.0
 11
38.1681681205
 21
157.4050515464
 31
0.0
 12
38.9373988898
 22
157.4050515464
 32
0.0
 13
38.9373988898
 23
157.4050515464
 33
0.0
  0
SOLID
  5
1AE
330
1AA
100
AcDbEntity
  8
KOTY
100
AcDbTrace
 10
38.5527835052
 20
133.9050515464
 30
0.0
 11
38.9373988898
 21
136.4050515464
 31
0.0
 12
38.1681681205
 22
136.4050515464
 32
0.0
 13
38.1681681205
 23
136.4050515464
 33
0.0
  0
LINE
  5
1AF
330
1AA
100
AcDbEntity
  8
KOTY
100
AcDbLine
 10
62.0527835052
 20
159.9050515464
 30
0.0
 11
37.5527835052
 21
159.9050515464
 31
0.0
  0
LINE
  5
1B0
330
1AA
100
AcDbEntity
  8
KOTY
100
AcDbLine
 10
63.7527835052
 20
133.9050515464
 30
0.0
 11
37.5527835052
 21
133.9050515464
 31
0.0
  0
LINE
  5
1B1
330
1AA
100
AcDbEntity
  8
KOTY
100
AcDbLine
 10
38.5527835052
 20
159.9050515464
 30
0.0
 11
38.5527835052
 21
133.9050515464
 31
0.0
  0
MTEXT
  5
1B2
330
1AA
100
AcDbEntity
  8
KOTY
100
AcDbMText
 10
35.3301142139
 20
144.0422041362
 30
-49.9
 40
2.5
 41
0.0
 71
     1
 72
     1
  1
26
  7
SLDTEXTSTYLE0
 11
-7.044195017643634E-15
 21
1.0
 31
0.0
 73
     1
 44
1.0
  0
ENDBLK
  5
1AC
330
1AA
100
AcDbEntity
  8
0
100
AcDbBlockEnd
  0
BLOCK
  5
1B5
330
1B4
100
AcDbEntity
  8
0
100
AcDbBlockBegin
  2
*D14
 70
     1
 10
0.0
 20
0.0
 30
0.0
  3
*D14
  1

  0
SOLID
  5
1B7
330
1B4
100
AcDbEntity
  8
KOTY
100
AcDbTrace
 10
38.5527835052
 20
132.6050515464
 30
0.0
 11
38.1681681205
 21
130.1050515464
 31
0.0
 12
38.9373988898
 22
130.1050515464
 32
0.0
 13
38.9373988898
 23
130.1050515464
 33
0.0
  0
SOLID
  5
1B8
330
1B4
100
AcDbEntity
  8
KOTY
100
AcDbTrace
 10
38.5527835052
 20
108.1050515464
 30
0.0
 11
38.9373988898
 21
110.6050515464
 31
0.0
 12
38.1681681205
 22
110.6050515464
 32
0.0
 13
38.1681681205
 23
110.6050515464
 33
0.0
  0
LINE
  5
1B9
330
1B4
100
AcDbEntity
  8
KOTY
100
AcDbLine
 10
45.7527835052
 20
132.6050515464
 30
0.0
 11
37.5527835052
 21
132.6050515464
 31
0.0
  0
LINE
  5
1BA
330
1B4
100
AcDbEntity
  8
KOTY
100
AcDbLine
 10
45.7527835052
 20
108.1050515464
 30
0.0
 11
37.5527835052
 21
108.1050515464
 31
0.0
  0
LINE
  5
1BB
330
1B4
100
AcDbEntity
  8
KOTY
100
AcDbLine
 10
38.5527835052
 20
132.6050515464
 30
0.0
 11
38.5527835052
 21
108.1050515464
 31
0.0
  0
MTEXT
  5
1BC
330
1B4
100
AcDbEntity
  8
KOTY
100
AcDbMText
 10
35.3301142139
 20
116.1067877664
 30
-49.9
 40
2.5
 41
0.0
 71
     1
 72
     1
  1
24,5
  7
SLDTEXTSTYLE0
 11
-7.044195017643634E-15
 21
1.0
 31
0.0
 73
     1
 44
1.0
  0
ENDBLK
  5
1B6
330
1B4
100
AcDbEntity
  8
0
100
AcDbBlockEnd
  0
BLOCK
  5
1BF
330
1BE
100
AcDbEntity
  8
0
100
AcDbBlockBegin
  2
*D15
 70
     1
 10
0.0
 20
0.0
 30
0.0
  3
*D15
  1

  0
SOLID
  5
1C1
330
1BE
100
AcDbEntity
  8
KOTY
100
AcDbTrace
 10
82.3527835052
 20
100.9050515464
 30
0.0
 11
79.8527835052
 21
101.289666931
 31
0.0
 12
79.8527835052
 22
100.5204361618
 32
0.0
 13
79.8527835052
 23
100.5204361618
 33
0.0
  0
SOLID
  5
1C2
330
1BE
100
AcDbEntity
  8
KOTY
100
AcDbTrace
 10
71.6527835052
 20
100.9050515464
 30
0.0
 11
74.1527835052
 21
100.5204361618
 31
0.0
 12
74.1527835052
 22
101.289666931
 32
0.0
 13
74.1527835052
 23
101.289666931
 33
0.0
  0
LINE
  5
1C3
330
1BE
100
AcDbEntity
  8
KOTY
100
AcDbLine
 10
82.3527835052
 20
108.1050515464
 30
0.0
 11
82.3527835052
 21
99.9050515464
 31
0.0
  0
LINE
  5
1C4
330
1BE
100
AcDbEntity
  8
KOTY
100
AcDbLine
 10
71.6527835052
 20
108.1050515464
 30
0.0
 11
71.6527835052
 21
99.9050515464
 31
0.0
  0
LINE
  5
1C5
330
1BE
100
AcDbEntity
  8
KOTY
100
AcDbLine
 10
82.3527835052
 20
100.9050515464
 30
0.0
 11
71.6527835052
 21
100.9050515464
 31
0.0
  0
MTEXT
  5
1C6
330
1BE
100
AcDbEntity
  8
KOTY
100
AcDbMText
 10
72.7545197251
 20
104.1277208376
 30
-49.9
 40
2.5
 41
0.0
 71
     1
 72
     1
  1
10,7
  7
SLDTEXTSTYLE0
 73
     1
 44
1.0
  0
ENDBLK
  5
1C0
330
1BE
100
AcDbEntity
  8
0
100
AcDbBlockEnd
  0
BLOCK
  5
1C9
330
1C8
100
AcDbEntity
  8
0
100
AcDbBlockBegin
  2
*D16
 70
     1
 10
0.0
 20
0.0
 30
0.0
  3
*D16
  1

  0
SOLID
  5
1CB
330
1C8
100
AcDbEntity
  8
KOTY
100
AcDbTrace
 10
45.7527835052
 20
100.9050515464
 30
0.0
 11
48.2527835052
 21
100.5204361618
 31
0.0
 12
48.2527835052
 22
101.289666931
 32
0.0
 13
48.2527835052
 23
101.289666931
 33
0.0
  0
SOLID
  5
1CC
330
1C8
100
AcDbEntity
  8
KOTY
100
AcDbTrace
 10
70.0527835052
 20
100.9050515464
 30
0.0
 11
67.5527835052
 21
101.289666931
 31
0.0
 12
67.5527835052
 22
100.5204361618
 32
0.0
 13
67.5527835052
 23
100.5204361618
 33
0.0
  0
LINE
  5
1CD
330
1C8
100
AcDbEntity
  8
KOTY
100
AcDbLine
 10
45.7527835052
 20
113.3050515464
 30
0.0
 11
45.7527835052
 21
99.9050515464
 31
0.0
  0
LINE
  5
1CE
330
1C8
100
AcDbEntity
  8
KOTY
100
AcDbLine
 10
70.0527835052
 20
113.3050515464
 30
0.0
 11
70.0527835052
 21
99.9050515464
 31
0.0
  0
LINE
  5
1CF
330
1C8
100
AcDbEntity
  8
KOTY
100
AcDbLine
 10
45.7527835052
 20
100.9050515464
 30
0.0
 11
70.0527835052
 21
100.9050515464
 31
0.0
  0
MTEXT
  5
1D0
330
1C8
100
AcDbEntity
  8
KOTY
100
AcDbMText
 10
53.9369469001
 20
104.1277208376
 30
-49.9
 40
2.5
 41
0.0
 71
     1
 72
     1
  1
24,3
  7
SLDTEXTSTYLE0
 73
     1
 44
1.0
  0
ENDBLK
  5
1CA
330
1C8
100
AcDbEntity
  8
0
100
AcDbBlockEnd
  0
ENDSEC
  0
SECTION
  2
ENTITIES
  0
MTEXT
  5
5E
330
1F
100
AcDbEntity
  8
TEXT
100
AcDbMText
 10
102.5709278351
 20
239.3559673885
 30
0.0
 40
5.2916666667
 41
0.0
 71
     1
 72
     1
  1
A8-20
  7
SLDTEXTSTYLE0
 73
     1
 44
1.0
  0
MTEXT
  5
60
330
1F
100
AcDbEntity
  8
TEXT
100
AcDbMText
 10
102.5709278351
 20
134.2118436772
 30
0.0
 40
5.2916666667
 41
0.0
 71
     1
 72
     1
  1
A 15
  7
SLDTEXTSTYLE1
 73
     1
 44
1.0
  0
ARC
  5
61
330
1F
100
AcDbEntity
  8
OBRYS
100
AcDbCircle
 10
43.6048633224
 20
230.3162933529
 30
0.0
 40
0.5
100
AcDbArc
 50
0.0
 51
90.0
  0
ARC
  5
62
330
1F
100
AcDbEntity
  8
OBRYS
100
AcDbCircle
 10
43.6048633224
 20
230.1162933529
 30
0.0
 40
0.5
100
AcDbArc
 50
270.0
 51
0.0
  0
ARC
  5
63
330
1F
100
AcDbEntity
  8
OBRYS
100
AcDbCircle
 10
43.6048633224
 20
221.6662933529
 30
0.0
 40
0.5
100
AcDbArc
 50
0.0
 51
90.0
  0
ARC
  5
64
330
1F
100
AcDbEntity
  8
OBRYS
100
AcDbCircle
 10
43.6048633224
 20
221.4662933529
 30
0.0
 40
0.5
100
AcDbArc
 50
270.0
 51
0.0
  0
ARC
  5
65
330
1F
100
AcDbEntity
  8
OBRYS
100
AcDbCircle
 10
43.6048633224
 20
213.0162933529
 30
0.0
 40
0.5
100
AcDbArc
 50
0.0
 51
90.0
  0
ARC
  5
66
330
1F
100
AcDbEntity
  8
OBRYS
100
AcDbCircle
 10
43.6048633224
 20
212.8162933529
 30
0.0
 40
0.5
100
AcDbArc
 50
270.0
 51
0.0
  0
ARC
  5
67
330
1F
100
AcDbEntity
  8
OBRYS
100
AcDbCircle
 10
60.2048633224
 20
212.8162933529
 30
0.0
 40
0.5
100
AcDbArc
 50
180.0
 51
270.0
  0
ARC
  5
68
330
1F
100
AcDbEntity
  8
OBRYS
100
AcDbCircle
 10
60.2048633224
 20
213.0162933529
 30
0.0
 40
0.5
100
AcDbArc
 50
90.0
 51
180.0
  0
ARC
  5
69
330
1F
100
AcDbEntity
  8
OBRYS
100
AcDbCircle
 10
60.2048633224
 20
221.4662933529
 30
0.0
 40
0.5
100
AcDbArc
 50
180.0
 51
270.0
  0
ARC
  5
6A
330
1F
100
AcDbEntity
  8
OBRYS
100
AcDbCircle
 10
60.2048633224
 20
221.6662933529
 30
0.0
 40
0.5
100
AcDbArc
 50
90.0
 51
180.0
  0
ARC
  5
6B
330
1F
100
AcDbEntity
  8
OBRYS
100
AcDbCircle
 10
60.2048633224
 20
230.1162933529
 30
0.0
 40
0.5
100
AcDbArc
 50
180.0
 51
270.0
  0
ARC
  5
6C
330
1F
100
AcDbEntity
  8
OBRYS
100
AcDbCircle
 10
60.2048633224
 20
230.3162933529
 30
0.0
 40
0.5
100
AcDbArc
 50
90.0
 51
180.0
  0
ARC
  5
6D
330
1F
100
AcDbEntity
  8
OBRYS
100
AcDbCircle
 10
41.4048633224
 20
208.6162933529
 30
0.0
 40
0.5
100
AcDbArc
 50
180.0
 51
270.0
  0
ARC
  5
6E
330
1F
100
AcDbEntity
  8
OBRYS
100
AcDbCircle
 10
41.4048633224
 20
260.6162933529
 30
0.0
 40
0.5
100
AcDbArc
 50
90.0
 51
180.0
  0
ARC
  5
6F
330
1F
100
AcDbEntity
  8
OBRYS
100
AcDbCircle
 10
43.9048633224
 20
260.6162933529
 30
0.0
 40
0.5
100
AcDbArc
 50
0.0
 51
90.0
  0
ARC
  5
70
330
1F
100
AcDbEntity
  8
OBRYS
100
AcDbCircle
 10
43.9048633224
 20
259.2162933529
 30
0.0
 40
0.5
100
AcDbArc
 50
270.0
 51
0.0
  0
ARC
  5
71
330
1F
100
AcDbEntity
  8
OBRYS
100
AcDbCircle
 10
43.7048633224
 20
259.2162933529
 30
0.0
 40
0.5000000000000071
100
AcDbArc
 50
180.0
 51
270.0
  0
ARC
  5
72
330
1F
100
AcDbEntity
  8
OBRYS
100
AcDbCircle
 10
42.7048633224
 20
259.4162933529
 30
0.0
 40
0.5
100
AcDbArc
 50
0.0
 51
90.0
  0
ARC
  5
73
330
1F
100
AcDbEntity
  8
OBRYS
100
AcDbCircle
 10
42.6048633224
 20
259.4162933529
 30
0.0
 40
0.5
100
AcDbArc
 50
90.0
 51
180.0
  0
ARC
  5
74
330
1F
100
AcDbEntity
  8
OBRYS
100
AcDbCircle
 10
42.6048633224
 20
255.0162933529
 30
0.0
 40
0.5
100
AcDbArc
 50
180.0
 51
270.0
  0
ARC
  5
75
330
1F
100
AcDbEntity
  8
OBRYS
100
AcDbCircle
 10
42.7048633224
 20
255.0162933529
 30
0.0
 40
0.5
100
AcDbArc
 50
270.0
 51
0.0
  0
ARC
  5
76
330
1F
100
AcDbEntity
  8
OBRYS
100
AcDbCircle
 10
43.7048633224
 20
255.2162933529
 30
0.0
 40
0.5000000000000071
100
AcDbArc
 50
90.0
 51
180.0
  0
ARC
  5
77
330
1F
100
AcDbEntity
  8
OBRYS
100
AcDbCircle
 10
43.9048633224
 20
255.2162933529
 30
0.0
 40
0.5
100
AcDbArc
 50
0.0
 51
90.0
  0
ARC
  5
78
330
1F
100
AcDbEntity
  8
OBRYS
100
AcDbCircle
 10
43.9048633224
 20
253.8162933529
 30
0.0
 40
0.5
100
AcDbArc
 50
270.0
 51
0.0
  0
ARC
  5
79
330
1F
100
AcDbEntity
  8
OBRYS
100
AcDbCircle
 10
42.6048633224
 20
252.8162933529
 30
0.0
 40
0.5
100
AcDbArc
 50
90.0
 51
180.0
  0
ARC
  5
7A
330
1F
100
AcDbEntity
  8
OBRYS
100
AcDbCircle
 10
48.9048633224
 20
234.4662933529
 30
0.0
 40
0.750000000000017
100
AcDbArc
 50
36.8698976458
 51
143.1301023542
  0
ARC
  5
7B
330
1F
100
AcDbEntity
  8
OBRYS
100
AcDbCircle
 10
51.9048633224
 20
234.4662933529
 30
0.0
 40
0.7500000000000057
100
AcDbArc
 50
36.8698976458
 51
143.1301023542
  0
ARC
  5
7C
330
1F
100
AcDbEntity
  8
OBRYS
100
AcDbCircle
 10
54.9048633224
 20
234.4662933529
 30
0.0
 40
0.750000000000017
100
AcDbArc
 50
36.8698976458
 51
143.1301023542
  0
ARC
  5
7D
330
1F
100
AcDbEntity
  8
OBRYS
100
AcDbCircle
 10
61.2048633224
 20
252.8162933529
 30
0.0
 40
0.5
100
AcDbArc
 50
0.0
 51
90.0
  0
ARC
  5
7E
330
1F
100
AcDbEntity
  8
OBRYS
100
AcDbCircle
 10
59.9048633224
 20
253.8162933529
 30
0.0
 40
0.5
100
AcDbArc
 50
180.0
 51
270.0
  0
ARC
  5
7F
330
1F
100
AcDbEntity
  8
OBRYS
100
AcDbCircle
 10
59.9048633224
 20
255.2162933529
 30
0.0
 40
0.5
100
AcDbArc
 50
90.0
 51
180.0
  0
ARC
  5
80
330
1F
100
AcDbEntity
  8
OBRYS
100
AcDbCircle
 10
60.1048633224
 20
255.2162933529
 30
0.0
 40
0.5000000000000071
100
AcDbArc
 50
0.0
 51
90.0
  0
ARC
  5
81
330
1F
100
AcDbEntity
  8
OBRYS
100
AcDbCircle
 10
61.1048633224
 20
255.0162933529
 30
0.0
 40
0.5
100
AcDbArc
 50
180.0
 51
270.0
  0
ARC
  5
82
330
1F
100
AcDbEntity
  8
OBRYS
100
AcDbCircle
 10
61.2048633224
 20
255.0162933529
 30
0.0
 40
0.5
100
AcDbArc
 50
270.0
 51
0.0
  0
ARC
  5
83
330
1F
100
AcDbEntity
  8
OBRYS
100
AcDbCircle
 10
61.2048633224
 20
259.4162933529
 30
0.0
 40
0.5
100
AcDbArc
 50
0.0
 51
90.0
  0
ARC
  5
84
330
1F
100
AcDbEntity
  8
OBRYS
100
AcDbCircle
 10
61.1048633224
 20
259.4162933529
 30
0.0
 40
0.5
100
AcDbArc
 50
90.0
 51
180.0
  0
ARC
  5
85
330
1F
100
AcDbEntity
  8
OBRYS
100
AcDbCircle
 10
60.1048633224
 20
259.2162933529
 30
0.0
 40
0.5000000000000071
100
AcDbArc
 50
270.0
 51
0.0
  0
ARC
  5
86
330
1F
100
AcDbEntity
  8
OBRYS
100
AcDbCircle
 10
59.9048633224
 20
259.2162933529
 30
0.0
 40
0.5
100
AcDbArc
 50
180.0
 51
270.0
  0
ARC
  5
87
330
1F
100
AcDbEntity
  8
OBRYS
100
AcDbCircle
 10
59.9048633224
 20
260.6162933529
 30
0.0
 40
0.5
100
AcDbArc
 50
90.0
 51
180.0
  0
ARC
  5
88
330
1F
100
AcDbEntity
  8
OBRYS
100
AcDbCircle
 10
82.4048633224
 20
260.6162933529
 30
0.0
 40
0.5
100
AcDbArc
 50
0.0
 51
90.0
  0
ARC
  5
89
330
1F
100
AcDbEntity
  8
OBRYS
100
AcDbCircle
 10
82.4048633224
 20
254.6162933529
 30
0.0
 40
0.5
100
AcDbArc
 50
270.0
 51
0.0
  0
ARC
  5
8A
330
1F
100
AcDbEntity
  8
OBRYS
100
AcDbCircle
 10
82.0548633224
 20
254.6162933529
 30
0.0
 40
0.5
100
AcDbArc
 50
180.0
 51
270.0
  0
ARC
  5
8B
330
1F
100
AcDbEntity
  8
OBRYS
100
AcDbCircle
 10
82.0548633224
 20
214.6162933529
 30
0.0
 40
0.5
100
AcDbArc
 50
90.0
 51
180.0
  0
ARC
  5
8C
330
1F
100
AcDbEntity
  8
OBRYS
100
AcDbCircle
 10
82.4048633224
 20
214.6162933529
 30
0.0
 40
0.5
100
AcDbArc
 50
0.0
 51
90.0
  0
ARC
  5
8D
330
1F
100
AcDbEntity
  8
OBRYS
100
AcDbCircle
 10
82.4048633224
 20
208.6162933529
 30
0.0
 40
0.5
100
AcDbArc
 50
270.0
 51
0.0
  0
LINE
  5
8E
330
1F
100
AcDbEntity
  8
OBRYS
100
AcDbLine
 10
44.1048633224
 20
221.6662933529
 30
0.0
 11
44.1048633224
 21
221.4662933529
 31
0.0
  0
LINE
  5
8F
330
1F
100
AcDbEntity
  8
OBRYS
100
AcDbLine
 10
62.9048633224
 20
209.4662933529
 30
0.0
 11
62.9048633224
 21
259.7662933529
 31
0.0
  0
LINE
  5
90
330
1F
100
AcDbEntity
  8
OBRYS
100
AcDbLine
 10
81.5548633224
 20
209.4662933529
 30
0.0
 11
62.9048633224
 21
209.4662933529
 31
0.0
  0
LINE
  5
91
330
1F
100
AcDbEntity
  8
OBRYS
100
AcDbLine
 10
81.5548633224
 20
214.6162933529
 30
0.0
 11
81.5548633224
 21
209.4662933529
 31
0.0
  0
LINE
  5
92
330
1F
100
AcDbEntity
  8
OBRYS
100
AcDbLine
 10
82.4048633224
 20
215.1162933529
 30
0.0
 11
82.0548633224
 21
215.1162933529
 31
0.0
  0
LINE
  5
93
330
1F
100
AcDbEntity
  8
OBRYS
100
AcDbLine
 10
82.9048633224
 20
208.6162933529
 30
0.0
 11
82.9048633224
 21
214.6162933529
 31
0.0
  0
LINE
  5
94
330
1F
100
AcDbEntity
  8
OBRYS
100
AcDbLine
 10
41.4048633224
 20
208.1162933529
 30
0.0
 11
82.4048633224
 21
208.1162933529
 31
0.0
  0
LINE
  5
95
330
1F
100
AcDbEntity
  8
OBRYS
100
AcDbLine
 10
40.9048633224
 20
260.6162933529
 30
0.0
 11
40.9048633224
 21
208.6162933529
 31
0.0
  0
LINE
  5
96
330
1F
100
AcDbEntity
  8
OBRYS
100
AcDbLine
 10
43.9048633224
 20
261.1162933529
 30
0.0
 11
41.4048633224
 21
261.1162933529
 31
0.0
  0
LINE
  5
97
330
1F
100
AcDbEntity
  8
OBRYS
100
AcDbLine
 10
44.4048633224
 20
259.2162933529
 30
0.0
 11
44.4048633224
 21
260.6162933529
 31
0.0
  0
LINE
  5
98
330
1F
100
AcDbEntity
  8
OBRYS
100
AcDbLine
 10
43.7048633224
 20
258.7162933529
 30
0.0
 11
43.9048633224
 21
258.7162933529
 31
0.0
  0
LINE
  5
99
330
1F
100
AcDbEntity
  8
OBRYS
100
AcDbLine
 10
43.2048633224
 20
259.4162933529
 30
0.0
 11
43.2048633224
 21
259.2162933529
 31
0.0
  0
LINE
  5
9A
330
1F
100
AcDbEntity
  8
OBRYS
100
AcDbLine
 10
42.6048633224
 20
259.9162933529
 30
0.0
 11
42.7048633224
 21
259.9162933529
 31
0.0
  0
LINE
  5
9B
330
1F
100
AcDbEntity
  8
OBRYS
100
AcDbLine
 10
42.1048633224
 20
255.0162933529
 30
0.0
 11
42.1048633224
 21
259.4162933529
 31
0.0
  0
LINE
  5
9C
330
1F
100
AcDbEntity
  8
OBRYS
100
AcDbLine
 10
42.6048633224
 20
254.5162933529
 30
0.0
 11
42.7048633224
 21
254.5162933529
 31
0.0
  0
LINE
  5
9D
330
1F
100
AcDbEntity
  8
OBRYS
100
AcDbLine
 10
43.2048633224
 20
255.0162933529
 30
0.0
 11
43.2048633224
 21
255.2162933529
 31
0.0
  0
LINE
  5
9E
330
1F
100
AcDbEntity
  8
OBRYS
100
AcDbLine
 10
43.7048633224
 20
255.7162933529
 30
0.0
 11
43.9048633224
 21
255.7162933529
 31
0.0
  0
LINE
  5
9F
330
1F
100
AcDbEntity
  8
OBRYS
100
AcDbLine
 10
44.4048633224
 20
255.2162933529
 30
0.0
 11
44.4048633224
 21
253.8162933529
 31
0.0
  0
LINE
  5
A0
330
1F
100
AcDbEntity
  8
OBRYS
100
AcDbLine
 10
43.9048633224
 20
253.3162933529
 30
0.0
 11
42.6048633224
 21
253.3162933529
 31
0.0
  0
LINE
  5
A1
330
1F
100
AcDbEntity
  8
OBRYS
100
AcDbLine
 10
42.1048633224
 20
234.9162933529
 30
0.0
 11
42.1048633224
 21
252.8162933529
 31
0.0
  0
LINE
  5
A2
330
1F
100
AcDbEntity
  8
OBRYS
100
AcDbLine
 10
55.5048633224
 20
234.9162933529
 30
0.0
 11
61.7048633224
 21
234.9162933529
 31
0.0
  0
LINE
  5
A3
330
1F
100
AcDbEntity
  8
OBRYS
100
AcDbLine
 10
61.7048633224
 20
252.8162933529
 30
0.0
 11
61.7048633224
 21
234.9162933529
 31
0.0
  0
LINE
  5
A4
330
1F
100
AcDbEntity
  8
OBRYS
100
AcDbLine
 10
59.9048633224
 20
253.3162933529
 30
0.0
 11
61.2048633224
 21
253.3162933529
 31
0.0
  0
LINE
  5
A5
330
1F
100
AcDbEntity
  8
OBRYS
100
AcDbLine
 10
59.4048633224
 20
255.2162933529
 30
0.0
 11
59.4048633224
 21
253.8162933529
 31
0.0
  0
LINE
  5
A6
330
1F
100
AcDbEntity
  8
OBRYS
100
AcDbLine
 10
60.1048633224
 20
255.7162933529
 30
0.0
 11
59.9048633224
 21
255.7162933529
 31
0.0
  0
LINE
  5
A7
330
1F
100
AcDbEntity
  8
OBRYS
100
AcDbLine
 10
60.6048633224
 20
255.0162933529
 30
0.0
 11
60.6048633224
 21
255.2162933529
 31
0.0
  0
LINE
  5
A8
330
1F
100
AcDbEntity
  8
OBRYS
100
AcDbLine
 10
61.2048633224
 20
254.5162933529
 30
0.0
 11
61.1048633224
 21
254.5162933529
 31
0.0
  0
LINE
  5
A9
330
1F
100
AcDbEntity
  8
OBRYS
100
AcDbLine
 10
61.7048633224
 20
259.4162933529
 30
0.0
 11
61.7048633224
 21
255.0162933529
 31
0.0
  0
LINE
  5
AA
330
1F
100
AcDbEntity
  8
OBRYS
100
AcDbLine
 10
61.1048633224
 20
259.9162933529
 30
0.0
 11
61.2048633224
 21
259.9162933529
 31
0.0
  0
LINE
  5
AB
330
1F
100
AcDbEntity
  8
OBRYS
100
AcDbLine
 10
60.6048633224
 20
259.2162933529
 30
0.0
 11
60.6048633224
 21
259.4162933529
 31
0.0
  0
LINE
  5
AC
330
1F
100
AcDbEntity
  8
OBRYS
100
AcDbLine
 10
59.9048633224
 20
258.7162933529
 30
0.0
 11
60.1048633224
 21
258.7162933529
 31
0.0
  0
LINE
  5
AD
330
1F
100
AcDbEntity
  8
OBRYS
100
AcDbLine
 10
59.4048633224
 20
260.6162933529
 30
0.0
 11
59.4048633224
 21
259.2162933529
 31
0.0
  0
LINE
  5
AE
330
1F
100
AcDbEntity
  8
OBRYS
100
AcDbLine
 10
59.9048633224
 20
261.1162933529
 30
0.0
 11
82.4048633224
 21
261.1162933529
 31
0.0
  0
LINE
  5
AF
330
1F
100
AcDbEntity
  8
OBRYS
100
AcDbLine
 10
82.9048633224
 20
260.6162933529
 30
0.0
 11
82.9048633224
 21
254.6162933529
 31
0.0
  0
LINE
  5
B0
330
1F
100
AcDbEntity
  8
OBRYS
100
AcDbLine
 10
82.4048633224
 20
254.1162933529
 30
0.0
 11
82.0548633224
 21
254.1162933529
 31
0.0
  0
LINE
  5
B1
330
1F
100
AcDbEntity
  8
OBRYS
100
AcDbLine
 10
81.5548633224
 20
254.6162933529
 30
0.0
 11
81.5548633224
 21
259.7662933529
 31
0.0
  0
LINE
  5
B2
330
1F
100
AcDbEntity
  8
OBRYS
100
AcDbLine
 10
81.5548633224
 20
259.7662933529
 30
0.0
 11
62.9048633224
 21
259.7662933529
 31
0.0
  0
LINE
  5
B3
330
1F
100
AcDbEntity
  8
OBRYS
100
AcDbLine
 10
43.6048633224
 20
220.9662933529
 30
0.0
 11
42.1048633224
 21
220.9662933529
 31
0.0
  0
LINE
  5
B4
330
1F
100
AcDbEntity
  8
OBRYS
100
AcDbLine
 10
42.1048633224
 20
213.5162933529
 30
0.0
 11
42.1048633224
 21
220.9662933529
 31
0.0
  0
LINE
  5
B5
330
1F
100
AcDbEntity
  8
OBRYS
100
AcDbLine
 10
42.1048633224
 20
213.5162933529
 30
0.0
 11
43.6048633224
 21
213.5162933529
 31
0.0
  0
LINE
  5
B6
330
1F
100
AcDbEntity
  8
OBRYS
100
AcDbLine
 10
44.1048633224
 20
213.0162933529
 30
0.0
 11
44.1048633224
 21
212.8162933529
 31
0.0
  0
LINE
  5
B7
330
1F
100
AcDbEntity
  8
OBRYS
100
AcDbLine
 10
43.6048633224
 20
212.3162933529
 30
0.0
 11
42.1048633224
 21
212.3162933529
 31
0.0
  0
LINE
  5
B8
330
1F
100
AcDbEntity
  8
OBRYS
100
AcDbLine
 10
42.1048633224
 20
209.3162933529
 30
0.0
 11
42.1048633224
 21
212.3162933529
 31
0.0
  0
LINE
  5
B9
330
1F
100
AcDbEntity
  8
OBRYS
100
AcDbLine
 10
61.7048633224
 20
209.3162933529
 30
0.0
 11
42.1048633224
 21
209.3162933529
 31
0.0
  0
LINE
  5
BA
330
1F
100
AcDbEntity
  8
OBRYS
100
AcDbLine
 10
61.7048633224
 20
212.3162933529
 30
0.0
 11
61.7048633224
 21
209.3162933529
 31
0.0
  0
LINE
  5
BB
330
1F
100
AcDbEntity
  8
OBRYS
100
AcDbLine
 10
60.2048633224
 20
212.3162933529
 30
0.0
 11
61.7048633224
 21
212.3162933529
 31
0.0
  0
LINE
  5
BC
330
1F
100
AcDbEntity
  8
OBRYS
100
AcDbLine
 10
59.7048633224
 20
213.0162933529
 30
0.0
 11
59.7048633224
 21
212.8162933529
 31
0.0
  0
LINE
  5
BD
330
1F
100
AcDbEntity
  8
OBRYS
100
AcDbLine
 10
61.7048633224
 20
213.5162933529
 30
0.0
 11
60.2048633224
 21
213.5162933529
 31
0.0
  0
LINE
  5
BE
330
1F
100
AcDbEntity
  8
OBRYS
100
AcDbLine
 10
61.7048633224
 20
220.9662933529
 30
0.0
 11
61.7048633224
 21
213.5162933529
 31
0.0
  0
LINE
  5
BF
330
1F
100
AcDbEntity
  8
OBRYS
100
AcDbLine
 10
60.2048633224
 20
220.9662933529
 30
0.0
 11
61.7048633224
 21
220.9662933529
 31
0.0
  0
LINE
  5
C0
330
1F
100
AcDbEntity
  8
OBRYS
100
AcDbLine
 10
59.7048633224
 20
221.6662933529
 30
0.0
 11
59.7048633224
 21
221.4662933529
 31
0.0
  0
LINE
  5
C1
330
1F
100
AcDbEntity
  8
OBRYS
100
AcDbLine
 10
61.7048633224
 20
222.1662933529
 30
0.0
 11
60.2048633224
 21
222.1662933529
 31
0.0
  0
LINE
  5
C2
330
1F
100
AcDbEntity
  8
OBRYS
100
AcDbLine
 10
61.7048633224
 20
229.6162933529
 30
0.0
 11
61.7048633224
 21
222.1662933529
 31
0.0
  0
LINE
  5
C3
330
1F
100
AcDbEntity
  8
OBRYS
100
AcDbLine
 10
60.2048633224
 20
229.6162933529
 30
0.0
 11
61.7048633224
 21
229.6162933529
 31
0.0
  0
LINE
  5
C4
330
1F
100
AcDbEntity
  8
OBRYS
100
AcDbLine
 10
59.7048633224
 20
230.3162933529
 30
0.0
 11
59.7048633224
 21
230.1162933529
 31
0.0
  0
LINE
  5
C5
330
1F
100
AcDbEntity
  8
OBRYS
100
AcDbLine
 10
61.7048633224
 20
230.8162933529
 30
0.0
 11
60.2048633224
 21
230.8162933529
 31
0.0
  0
LINE
  5
C6
330
1F
100
AcDbEntity
  8
OBRYS
100
AcDbLine
 10
61.7048633224
 20
233.8162933529
 30
0.0
 11
61.7048633224
 21
230.8162933529
 31
0.0
  0
LINE
  5
C7
330
1F
100
AcDbEntity
  8
OBRYS
100
AcDbLine
 10
42.1048633224
 20
233.8162933529
 30
0.0
 11
61.7048633224
 21
233.8162933529
 31
0.0
  0
LINE
  5
C8
330
1F
100
AcDbEntity
  8
OBRYS
100
AcDbLine
 10
42.1048633224
 20
230.8162933529
 30
0.0
 11
42.1048633224
 21
233.8162933529
 31
0.0
  0
LINE
  5
C9
330
1F
100
AcDbEntity
  8
OBRYS
100
AcDbLine
 10
42.1048633224
 20
230.8162933529
 30
0.0
 11
43.6048633224
 21
230.8162933529
 31
0.0
  0
LINE
  5
CA
330
1F
100
AcDbEntity
  8
OBRYS
100
AcDbLine
 10
44.1048633224
 20
230.3162933529
 30
0.0
 11
44.1048633224
 21
230.1162933529
 31
0.0
  0
LINE
  5
CB
330
1F
100
AcDbEntity
  8
OBRYS
100
AcDbLine
 10
43.6048633224
 20
229.6162933529
 30
0.0
 11
42.1048633224
 21
229.6162933529
 31
0.0
  0
LINE
  5
CC
330
1F
100
AcDbEntity
  8
OBRYS
100
AcDbLine
 10
42.1048633224
 20
222.1662933529
 30
0.0
 11
42.1048633224
 21
229.6162933529
 31
0.0
  0
LINE
  5
CD
330
1F
100
AcDbEntity
  8
OBRYS
100
AcDbLine
 10
42.1048633224
 20
222.1662933529
 30
0.0
 11
43.6048633224
 21
222.1662933529
 31
0.0
  0
LINE
  5
CE
330
1F
100
AcDbEntity
  8
OBRYS
100
AcDbLine
 10
42.1048633224
 20
234.9162933529
 30
0.0
 11
48.3048633224
 21
234.9162933529
 31
0.0
  0
LINE
  5
CF
330
1F
100
AcDbEntity
  8
OBRYS
100
AcDbLine
 10
49.5048633224
 20
234.9162933529
 30
0.0
 11
51.3048633224
 21
234.9162933529
 31
0.0
  0
LINE
  5
D0
330
1F
100
AcDbEntity
  8
OBRYS
100
AcDbLine
 10
52.5048633224
 20
234.9162933529
 30
0.0
 11
54.3048633224
 21
234.9162933529
 31
0.0
  0
DIMENSION
  5
D1
330
1F
100
AcDbEntity
  8
KOTY
100
AcDbDimension
  2
*D1
 10
28.9048633224
 20
208.1162933529
 30
0.0
 11
28.9048633224
 21
234.6162933529
 31
0.0
 70
   160
 71
     2
 42
-1.0
  3
SLDDIMSTYLE0
100
AcDbAlignedDimension
 13
41.4048633224
 23
261.1162933529
 33
0.0
 14
41.4048633224
 24
208.1162933529
 34
0.0
 50
90.0
100
AcDbRotatedDimension
  0
DIMENSION
  5
DC
330
1F
100
AcDbEntity
  8
KOTY
100
AcDbDimension
  2
*D2
 10
34.9048633224
 20
234.9162933529
 30
0.0
 11
34.9048633224
 21
248.0162933529
 31
0.0
 70
   160
 71
     2
 42
-1.0
  3
SLDDIMSTYLE1
100
AcDbAlignedDimension
 13
41.4048633224
 23
261.1162933529
 33
0.0
 14
42.1048633224
 24
234.9162933529
 34
0.0
 50
90.0
100
AcDbRotatedDimension
  0
DIMENSION
  5
E7
330
1F
100
AcDbEntity
  8
KOTY
100
AcDbDimension
  2
*D3
 10
34.9048633224
 20
209.3162933529
 30
0.0
 11
34.9048633224
 21
221.5662933529
 31
0.0
 70
   160
 71
     2
 42
-1.0
  3
SLDDIMSTYLE1
100
AcDbAlignedDimension
 13
42.1048633224
 23
233.8162933529
 33
0.0
 14
42.1048633224
 24
209.3162933529
 34
0.0
 50
90.0
100
AcDbRotatedDimension
  0
DIMENSION
  5
F1
330
1F
100
AcDbEntity
  8
KOTY
100
AcDbDimension
  2
*D4
 10
59.4048633224
 20
267.1162933529
 30
0.0
 11
51.9048633224
 21
267.1162933529
 31
0.0
 70
   160
 71
     2
 42
-1.0
  3
SLDDIMSTYLE2
100
AcDbAlignedDimension
 13
44.4048633224
 23
260.6162933529
 33
0.0
 14
59.4048633224
 24
260.6162933529
 34
0.0
100
AcDbRotatedDimension
  0
DIMENSION
  5
FE
330
1F
100
AcDbEntity
  8
KOTY
100
AcDbDimension
  2
*D5
 10
62.9048633224
 20
273.1162933529
 30
0.0
 11
51.9048633224
 21
273.1162933529
 31
0.0
 70
   160
 71
     2
 42
-1.0
  3
SLDDIMSTYLE0
100
AcDbAlignedDimension
 13
40.9048633224
 23
260.6162933529
 33
0.0
 14
62.9048633224
 24
259.7662933529
 34
0.0
100
AcDbRotatedDimension
  0
DIMENSION
  5
108
330
1F
100
AcDbEntity
  8
KOTY
100
AcDbDimension
  2
*D6
 10
72.2214314342
 20
209.4662933529
 30
0.0
 11
72.2214314342
 21
234.6162933529
 31
0.0
 70
   160
 71
     2
 42
-1.0
  3
SLDDIMSTYLE0
100
AcDbAlignedDimension
 13
62.9048633224
 23
259.7662933529
 33
0.0
 14
62.9048633224
 24
209.4662933529
 34
0.0
 50
90.0
100
AcDbRotatedDimension
  0
DIMENSION
  5
110
330
1F
100
AcDbEntity
  8
KOTY
100
AcDbDimension
  2
*D7
 10
88.9048633224
 20
215.1162933529
 30
0.0
 11
88.9048633224
 21
234.6162933529
 31
0.0
 70
   160
 71
     2
 42
-1.0
  3
SLDDIMSTYLE0
100
AcDbAlignedDimension
 13
82.4048633224
 23
254.1162933529
 33
0.0
 14
82.4048633224
 24
215.1162933529
 34
0.0
 50
90.0
100
AcDbRotatedDimension
  0
DIMENSION
  5
11A
330
1F
100
AcDbEntity
  8
KOTY
100
AcDbDimension
  2
*D8
 10
40.9048633224
 20
202.1162933529
 30
0.0
 11
61.9048633224
 21
202.1162933529
 31
0.0
 70
   160
 71
     2
 42
-1.0
  3
SLDDIMSTYLE0
100
AcDbAlignedDimension
 13
82.9048633224
 23
208.6162933529
 33
0.0
 14
40.9048633224
 24
208.6162933529
 34
0.0
100
AcDbRotatedDimension
  0
LINE
  5
124
330
1F
100
AcDbEntity
  8
OBRYS
100
AcDbLine
 10
82.3527835052
 20
132.6050515464
 30
0.0
 11
71.6527835052
 21
132.6050515464
 31
0.0
  0
LINE
  5
125
330
1F
100
AcDbEntity
  8
OBRYS
100
AcDbLine
 10
71.6527835052
 20
132.6050515464
 30
0.0
 11
71.6527835052
 21
108.1050515464
 31
0.0
  0
LINE
  5
126
330
1F
100
AcDbEntity
  8
OBRYS
100
AcDbLine
 10
71.6527835052
 20
108.1050515464
 30
0.0
 11
82.3527835052
 21
108.1050515464
 31
0.0
  0
LINE
  5
127
330
1F
100
AcDbEntity
  8
OBRYS
100
AcDbLine
 10
82.3527835052
 20
108.1050515464
 30
0.0
 11
82.3527835052
 21
132.6050515464
 31
0.0
  0
LINE
  5
128
330
1F
100
AcDbEntity
  8
OBRYS
100
AcDbLine
 10
61.5527835052
 20
159.4050515464
 30
0.0
 11
61.5527835052
 21
133.9050515464
 31
0.0
  0
ARC
  5
129
330
1F
100
AcDbEntity
  8
OBRYS
100
AcDbCircle
 10
62.0527835052
 20
159.4050515464
 30
0.0
 40
0.5
100
AcDbArc
 50
90.0
 51
180.0
  0
LINE
  5
12A
330
1F
100
AcDbEntity
  8
OBRYS
100
AcDbLine
 10
64.5527835052
 20
159.9050515464
 30
0.0
 11
62.0527835052
 21
159.9050515464
 31
0.0
  0
ARC
  5
12B
330
1F
100
AcDbEntity
  8
OBRYS
100
AcDbCircle
 10
64.5527835052
 20
159.4050515464
 30
0.0
 40
0.5000000000000142
100
AcDbArc
 50
0.0
 51
90.0
  0
LINE
  5
12C
330
1F
100
AcDbEntity
  8
OBRYS
100
AcDbLine
 10
65.0527835052
 20
158.0050515464
 30
0.0
 11
65.0527835052
 21
159.4050515464
 31
0.0
  0
ARC
  5
12D
330
1F
100
AcDbEntity
  8
OBRYS
100
AcDbCircle
 10
64.5527835052
 20
158.0050515464
 30
0.0
 40
0.5000000000000142
100
AcDbArc
 50
270.0
 51
0.0
  0
LINE
  5
12E
330
1F
100
AcDbEntity
  8
OBRYS
100
AcDbLine
 10
64.3527835052
 20
157.5050515464
 30
0.0
 11
64.5527835052
 21
157.5050515464
 31
0.0
  0
ARC
  5
12F
330
1F
100
AcDbEntity
  8
OBRYS
100
AcDbCircle
 10
64.3527835052
 20
158.0050515464
 30
0.0
 40
0.5
100
AcDbArc
 50
180.0
 51
270.0
  0
LINE
  5
130
330
1F
100
AcDbEntity
  8
OBRYS
100
AcDbLine
 10
63.8527835052
 20
158.2050515464
 30
0.0
 11
63.8527835052
 21
158.0050515464
 31
0.0
  0
ARC
  5
131
330
1F
100
AcDbEntity
  8
OBRYS
100
AcDbCircle
 10
63.3527835052
 20
158.2050515464
 30
0.0
 40
0.5
100
AcDbArc
 50
0.0
 51
90.0
  0
LINE
  5
132
330
1F
100
AcDbEntity
  8
OBRYS
100
AcDbLine
 10
63.2527835052
 20
158.7050515464
 30
0.0
 11
63.3527835052
 21
158.7050515464
 31
0.0
  0
ARC
  5
133
330
1F
100
AcDbEntity
  8
OBRYS
100
AcDbCircle
 10
63.2527835052
 20
158.2050515464
 30
0.0
 40
0.5
100
AcDbArc
 50
90.0
 51
180.0
  0
LINE
  5
134
330
1F
100
AcDbEntity
  8
OBRYS
100
AcDbLine
 10
62.7527835052
 20
153.8050515464
 30
0.0
 11
62.7527835052
 21
158.2050515464
 31
0.0
  0
ARC
  5
135
330
1F
100
AcDbEntity
  8
OBRYS
100
AcDbCircle
 10
63.2527835052
 20
153.8050515464
 30
0.0
 40
0.5
100
AcDbArc
 50
180.0
 51
270.0
  0
LINE
  5
136
330
1F
100
AcDbEntity
  8
OBRYS
100
AcDbLine
 10
63.3527835052
 20
153.3050515464
 30
0.0
 11
63.2527835052
 21
153.3050515464
 31
0.0
  0
ARC
  5
137
330
1F
100
AcDbEntity
  8
OBRYS
100
AcDbCircle
 10
63.3527835052
 20
153.8050515464
 30
0.0
 40
0.5
100
AcDbArc
 50
270.0
 51
0.0
  0
LINE
  5
138
330
1F
100
AcDbEntity
  8
OBRYS
100
AcDbLine
 10
63.8527835052
 20
154.0050515464
 30
0.0
 11
63.8527835052
 21
153.8050515464
 31
0.0
  0
ARC
  5
139
330
1F
100
AcDbEntity
  8
OBRYS
100
AcDbCircle
 10
64.3527835052
 20
154.0050515464
 30
0.0
 40
0.5
100
AcDbArc
 50
90.0
 51
180.0
  0
LINE
  5
13A
330
1F
100
AcDbEntity
  8
OBRYS
100
AcDbLine
 10
64.5527835052
 20
154.5050515464
 30
0.0
 11
64.3527835052
 21
154.5050515464
 31
0.0
  0
ARC
  5
13B
330
1F
100
AcDbEntity
  8
OBRYS
100
AcDbCircle
 10
64.5527835052
 20
154.0050515464
 30
0.0
 40
0.5000000000000142
100
AcDbArc
 50
0.0
 51
90.0
  0
LINE
  5
13C
330
1F
100
AcDbEntity
  8
OBRYS
100
AcDbLine
 10
65.0527835052
 20
152.6050515464
 30
0.0
 11
65.0527835052
 21
154.0050515464
 31
0.0
  0
ARC
  5
13D
330
1F
100
AcDbEntity
  8
OBRYS
100
AcDbCircle
 10
64.5527835052
 20
152.6050515464
 30
0.0
 40
0.5000000000000142
100
AcDbArc
 50
270.0
 51
0.0
  0
LINE
  5
13E
330
1F
100
AcDbEntity
  8
OBRYS
100
AcDbLine
 10
63.2527835052
 20
152.1050515464
 30
0.0
 11
64.5527835052
 21
152.1050515464
 31
0.0
  0
ARC
  5
13F
330
1F
100
AcDbEntity
  8
OBRYS
100
AcDbCircle
 10
63.2527835052
 20
151.6050515464
 30
0.0
 40
0.5
100
AcDbArc
 50
90.0
 51
180.0
  0
LINE
  5
140
330
1F
100
AcDbEntity
  8
OBRYS
100
AcDbLine
 10
62.7527835052
 20
134.9050515464
 30
0.0
 11
62.7527835052
 21
151.6050515464
 31
0.0
  0
ARC
  5
141
330
1F
100
AcDbEntity
  8
OBRYS
100
AcDbCircle
 10
63.7527835052
 20
134.9050515464
 30
0.0
 40
1.0
100
AcDbArc
 50
180.0
 51
270.0
  0
LINE
  5
142
330
1F
100
AcDbEntity
  8
OBRYS
100
AcDbLine
 10
81.3527835052
 20
133.9050515464
 30
0.0
 11
63.7527835052
 21
133.9050515464
 31
0.0
  0
ARC
  5
143
330
1F
100
AcDbEntity
  8
OBRYS
100
AcDbCircle
 10
81.3527835052
 20
134.9050515464
 30
0.0
 40
1.0
100
AcDbArc
 50
270.0
 51
0.0
  0
LINE
  5
144
330
1F
100
AcDbEntity
  8
OBRYS
100
AcDbLine
 10
82.3527835052
 20
151.6050515464
 30
0.0
 11
82.3527835052
 21
134.9050515464
 31
0.0
  0
ARC
  5
145
330
1F
100
AcDbEntity
  8
OBRYS
100
AcDbCircle
 10
81.8527835052
 20
151.6050515464
 30
0.0
 40
0.5
100
AcDbArc
 50
0.0
 51
90.0
  0
LINE
  5
146
330
1F
100
AcDbEntity
  8
OBRYS
100
AcDbLine
 10
80.5527835052
 20
152.1050515464
 30
0.0
 11
81.8527835052
 21
152.1050515464
 31
0.0
  0
ARC
  5
147
330
1F
100
AcDbEntity
  8
OBRYS
100
AcDbCircle
 10
80.5527835052
 20
152.6050515464
 30
0.0
 40
0.5000000000000142
100
AcDbArc
 50
180.0
 51
270.0
  0
LINE
  5
148
330
1F
100
AcDbEntity
  8
OBRYS
100
AcDbLine
 10
80.0527835052
 20
154.0050515464
 30
0.0
 11
80.0527835052
 21
152.6050515464
 31
0.0
  0
ARC
  5
149
330
1F
100
AcDbEntity
  8
OBRYS
100
AcDbCircle
 10
80.5527835052
 20
154.0050515464
 30
0.0
 40
0.5000000000000142
100
AcDbArc
 50
90.0
 51
180.0
  0
LINE
  5
14A
330
1F
100
AcDbEntity
  8
OBRYS
100
AcDbLine
 10
80.7527835052
 20
154.5050515464
 30
0.0
 11
80.5527835052
 21
154.5050515464
 31
0.0
  0
ARC
  5
14B
330
1F
100
AcDbEntity
  8
OBRYS
100
AcDbCircle
 10
80.7527835052
 20
154.0050515464
 30
0.0
 40
0.5
100
AcDbArc
 50
0.0
 51
90.0
  0
LINE
  5
14C
330
1F
100
AcDbEntity
  8
OBRYS
100
AcDbLine
 10
81.2527835052
 20
153.8050515464
 30
0.0
 11
81.2527835052
 21
154.0050515464
 31
0.0
  0
ARC
  5
14D
330
1F
100
AcDbEntity
  8
OBRYS
100
AcDbCircle
 10
81.7527835052
 20
153.8050515464
 30
0.0
 40
0.5
100
AcDbArc
 50
180.0
 51
270.0
  0
LINE
  5
14E
330
1F
100
AcDbEntity
  8
OBRYS
100
AcDbLine
 10
81.8527835052
 20
153.3050515464
 30
0.0
 11
81.7527835052
 21
153.3050515464
 31
0.0
  0
ARC
  5
14F
330
1F
100
AcDbEntity
  8
OBRYS
100
AcDbCircle
 10
81.8527835052
 20
153.8050515464
 30
0.0
 40
0.5
100
AcDbArc
 50
270.0
 51
0.0
  0
LINE
  5
150
330
1F
100
AcDbEntity
  8
OBRYS
100
AcDbLine
 10
82.3527835052
 20
158.2050515464
 30
0.0
 11
82.3527835052
 21
153.8050515464
 31
0.0
  0
ARC
  5
151
330
1F
100
AcDbEntity
  8
OBRYS
100
AcDbCircle
 10
81.8527835052
 20
158.2050515464
 30
0.0
 40
0.5
100
AcDbArc
 50
0.0
 51
90.0
  0
LINE
  5
152
330
1F
100
AcDbEntity
  8
OBRYS
100
AcDbLine
 10
81.7527835052
 20
158.7050515464
 30
0.0
 11
81.8527835052
 21
158.7050515464
 31
0.0
  0
ARC
  5
153
330
1F
100
AcDbEntity
  8
OBRYS
100
AcDbCircle
 10
81.7527835052
 20
158.2050515464
 30
0.0
 40
0.5
100
AcDbArc
 50
90.0
 51
180.0
  0
LINE
  5
154
330
1F
100
AcDbEntity
  8
OBRYS
100
AcDbLine
 10
81.2527835052
 20
158.0050515464
 30
0.0
 11
81.2527835052
 21
158.2050515464
 31
0.0
  0
ARC
  5
155
330
1F
100
AcDbEntity
  8
OBRYS
100
AcDbCircle
 10
80.7527835052
 20
158.0050515464
 30
0.0
 40
0.5
100
AcDbArc
 50
270.0
 51
0.0
  0
LINE
  5
156
330
1F
100
AcDbEntity
  8
OBRYS
100
AcDbLine
 10
80.5527835052
 20
157.5050515464
 30
0.0
 11
80.7527835052
 21
157.5050515464
 31
0.0
  0
ARC
  5
157
330
1F
100
AcDbEntity
  8
OBRYS
100
AcDbCircle
 10
80.5527835052
 20
158.0050515464
 30
0.0
 40
0.5000000000000142
100
AcDbArc
 50
180.0
 51
270.0
  0
LINE
  5
158
330
1F
100
AcDbEntity
  8
OBRYS
100
AcDbLine
 10
80.0527835052
 20
159.4050515464
 30
0.0
 11
80.0527835052
 21
158.0050515464
 31
0.0
  0
ARC
  5
159
330
1F
100
AcDbEntity
  8
OBRYS
100
AcDbCircle
 10
80.5527835052
 20
159.4050515464
 30
0.0
 40
0.5000000000000142
100
AcDbArc
 50
90.0
 51
180.0
  0
LINE
  5
15A
330
1F
100
AcDbEntity
  8
OBRYS
100
AcDbLine
 10
83.0527835052
 20
159.9050515464
 30
0.0
 11
80.5527835052
 21
159.9050515464
 31
0.0
  0
ARC
  5
15B
330
1F
100
AcDbEntity
  8
OBRYS
100
AcDbCircle
 10
83.0527835052
 20
159.4050515464
 30
0.0
 40
0.5
100
AcDbArc
 50
0.0
 51
90.0
  0
LINE
  5
15C
330
1F
100
AcDbEntity
  8
OBRYS
100
AcDbLine
 10
83.5527835052
 20
107.4050515464
 30
0.0
 11
83.5527835052
 21
159.4050515464
 31
0.0
  0
ARC
  5
15D
330
1F
100
AcDbEntity
  8
OBRYS
100
AcDbCircle
 10
83.0527835052
 20
107.4050515464
 30
0.0
 40
0.5000000000000142
100
AcDbArc
 50
270.0
 51
0.0
  0
LINE
  5
15E
330
1F
100
AcDbEntity
  8
OBRYS
100
AcDbLine
 10
45.0527835052
 20
106.9050515464
 30
0.0
 11
83.0527835052
 21
106.9050515464
 31
0.0
  0
ARC
  5
15F
330
1F
100
AcDbEntity
  8
OBRYS
100
AcDbCircle
 10
45.0527835052
 20
107.4050515464
 30
0.0
 40
0.5000000000000142
100
AcDbArc
 50
180.0
 51
270.0
  0
LINE
  5
160
330
1F
100
AcDbEntity
  8
OBRYS
100
AcDbLine
 10
44.5527835052
 20
133.4050515464
 30
0.0
 11
44.5527835052
 21
107.4050515464
 31
0.0
  0
ARC
  5
161
330
1F
100
AcDbEntity
  8
OBRYS
100
AcDbCircle
 10
45.0527835052
 20
133.4050515464
 30
0.0
 40
0.5
100
AcDbArc
 50
90.0
 51
180.0
  0
LINE
  5
162
330
1F
100
AcDbEntity
  8
OBRYS
100
AcDbLine
 10
61.5527835052
 20
133.9050515464
 30
0.0
 11
45.0527835052
 21
133.9050515464
 31
0.0
  0
ARC
  5
163
330
1F
100
AcDbEntity
  8
OBRYS
100
AcDbCircle
 10
66.5527835052
 20
112.8050515464
 30
0.0
 40
0.5
100
AcDbArc
 50
90.0
 51
180.0
  0
LINE
  5
164
330
1F
100
AcDbEntity
  8
OBRYS
100
AcDbLine
 10
66.5527835052
 20
113.3050515464
 30
0.0
 11
70.0527835052
 21
113.3050515464
 31
0.0
  0
LINE
  5
165
330
1F
100
AcDbEntity
  8
OBRYS
100
AcDbLine
 10
70.0527835052
 20
113.3050515464
 30
0.0
 11
70.0527835052
 21
127.4050515464
 31
0.0
  0
LINE
  5
166
330
1F
100
AcDbEntity
  8
OBRYS
100
AcDbLine
 10
70.0527835052
 20
127.4050515464
 30
0.0
 11
66.5527835052
 21
127.4050515464
 31
0.0
  0
ARC
  5
167
330
1F
100
AcDbEntity
  8
OBRYS
100
AcDbCircle
 10
66.5527835052
 20
127.9050515464
 30
0.0
 40
0.5
100
AcDbArc
 50
180.0
 51
270.0
  0
LINE
  5
168
330
1F
100
AcDbEntity
  8
OBRYS
100
AcDbLine
 10
66.0527835052
 20
127.9050515464
 30
0.0
 11
66.0527835052
 21
128.1050515464
 31
0.0
  0
ARC
  5
169
330
1F
100
AcDbEntity
  8
OBRYS
100
AcDbCircle
 10
66.5527835052
 20
128.1050515464
 30
0.0
 40
0.5
100
AcDbArc
 50
90.0
 51
180.0
  0
LINE
  5
16A
330
1F
100
AcDbEntity
  8
OBRYS
100
AcDbLine
 10
66.5527835052
 20
128.6050515464
 30
0.0
 11
70.0527835052
 21
128.6050515464
 31
0.0
  0
LINE
  5
16B
330
1F
100
AcDbEntity
  8
OBRYS
100
AcDbLine
 10
70.0527835052
 20
128.6050515464
 30
0.0
 11
70.0527835052
 21
132.6050515464
 31
0.0
  0
LINE
  5
16C
330
1F
100
AcDbEntity
  8
OBRYS
100
AcDbLine
 10
70.0527835052
 20
132.6050515464
 30
0.0
 11
45.7527835052
 21
132.6050515464
 31
0.0
  0
LINE
  5
16D
330
1F
100
AcDbEntity
  8
OBRYS
100
AcDbLine
 10
45.7527835052
 20
132.6050515464
 30
0.0
 11
45.7527835052
 21
128.6050515464
 31
0.0
  0
LINE
  5
16E
330
1F
100
AcDbEntity
  8
OBRYS
100
AcDbLine
 10
45.7527835052
 20
128.6050515464
 30
0.0
 11
49.2527835052
 21
128.6050515464
 31
0.0
  0
ARC
  5
16F
330
1F
100
AcDbEntity
  8
OBRYS
100
AcDbCircle
 10
49.2527835052
 20
128.1050515464
 30
0.0
 40
0.5
100
AcDbArc
 50
0.0
 51
90.0
  0
LINE
  5
170
330
1F
100
AcDbEntity
  8
OBRYS
100
AcDbLine
 10
49.7527835052
 20
128.1050515464
 30
0.0
 11
49.7527835052
 21
127.9050515464
 31
0.0
  0
ARC
  5
171
330
1F
100
AcDbEntity
  8
OBRYS
100
AcDbCircle
 10
49.2527835052
 20
127.9050515464
 30
0.0
 40
0.5
100
AcDbArc
 50
270.0
 51
0.0
  0
LINE
  5
172
330
1F
100
AcDbEntity
  8
OBRYS
100
AcDbLine
 10
49.2527835052
 20
127.4050515464
 30
0.0
 11
45.7527835052
 21
127.4050515464
 31
0.0
  0
LINE
  5
173
330
1F
100
AcDbEntity
  8
OBRYS
100
AcDbLine
 10
45.7527835052
 20
127.4050515464
 30
0.0
 11
45.7527835052
 21
113.3050515464
 31
0.0
  0
LINE
  5
174
330
1F
100
AcDbEntity
  8
OBRYS
100
AcDbLine
 10
45.7527835052
 20
113.3050515464
 30
0.0
 11
49.2527835052
 21
113.3050515464
 31
0.0
  0
ARC
  5
175
330
1F
100
AcDbEntity
  8
OBRYS
100
AcDbCircle
 10
49.2527835052
 20
112.8050515464
 30
0.0
 40
0.5
100
AcDbArc
 50
0.0
 51
90.0
  0
LINE
  5
176
330
1F
100
AcDbEntity
  8
OBRYS
100
AcDbLine
 10
49.7527835052
 20
112.8050515464
 30
0.0
 11
49.7527835052
 21
112.6050515464
 31
0.0
  0
ARC
  5
177
330
1F
100
AcDbEntity
  8
OBRYS
100
AcDbCircle
 10
49.2527835052
 20
112.6050515464
 30
0.0
 40
0.5
100
AcDbArc
 50
270.0
 51
0.0
  0
LINE
  5
178
330
1F
100
AcDbEntity
  8
OBRYS
100
AcDbLine
 10
49.2527835052
 20
112.1050515464
 30
0.0
 11
45.7527835052
 21
112.1050515464
 31
0.0
  0
LINE
  5
179
330
1F
100
AcDbEntity
  8
OBRYS
100
AcDbLine
 10
45.7527835052
 20
112.1050515464
 30
0.0
 11
45.7527835052
 21
108.1050515464
 31
0.0
  0
LINE
  5
17A
330
1F
100
AcDbEntity
  8
OBRYS
100
AcDbLine
 10
45.7527835052
 20
108.1050515464
 30
0.0
 11
70.0527835052
 21
108.1050515464
 31
0.0
  0
LINE
  5
17B
330
1F
100
AcDbEntity
  8
OBRYS
100
AcDbLine
 10
70.0527835052
 20
108.1050515464
 30
0.0
 11
70.0527835052
 21
112.1050515464
 31
0.0
  0
LINE
  5
17C
330
1F
100
AcDbEntity
  8
OBRYS
100
AcDbLine
 10
70.0527835052
 20
112.1050515464
 30
0.0
 11
66.5527835052
 21
112.1050515464
 31
0.0
  0
ARC
  5
17D
330
1F
100
AcDbEntity
  8
OBRYS
100
AcDbCircle
 10
66.5527835052
 20
112.6050515464
 30
0.0
 40
0.5
100
AcDbArc
 50
180.0
 51
270.0
  0
LINE
  5
17E
330
1F
100
AcDbEntity
  8
OBRYS
100
AcDbLine
 10
66.0527835052
 20
112.6050515464
 30
0.0
 11
66.0527835052
 21
112.8050515464
 31
0.0
  0
DIMENSION
  5
17F
330
1F
100
AcDbEntity
  8
KOTY
100
AcDbDimension
  2
*D9
 10
32.5527835052
 20
106.9050515464
 30
0.0
 11
32.5527835052
 21
133.4050515464
 31
0.0
 70
   160
 71
     2
 42
-1.0
  3
SLDDIMSTYLE0
100
AcDbAlignedDimension
 13
62.0527835052
 23
159.9050515464
 33
0.0
 14
45.0527835052
 24
106.9050515464
 34
0.0
 50
90.0
100
AcDbRotatedDimension
  0
DIMENSION
  5
189
330
1F
100
AcDbEntity
  8
KOTY
100
AcDbDimension
  2
*D10
 10
83.5527835052
 20
94.9050515464
 30
0.0
 11
64.0527835052
 21
94.9050515464
 31
0.0
 70
   160
 71
     2
 42
-1.0
  3
SLDDIMSTYLE0
100
AcDbAlignedDimension
 13
44.5527835052
 23
107.4050515464
 33
0.0
 14
83.5527835052
 24
107.4050515464
 34
0.0
 50
0.0
100
AcDbRotatedDimension
  0
DIMENSION
  5
193
330
1F
100
AcDbEntity
  8
KOTY
100
AcDbDimension
  2
*D11
 10
80.0527835052
 20
165.9050515464
 30
0.0
 11
72.5527835052
 21
165.9050515464
 31
0.0
 70
   160
 71
     2
 42
-1.0
  3
SLDDIMSTYLE2
100
AcDbAlignedDimension
 13
65.0527835052
 23
159.4050515464
 33
0.0
 14
80.0527835052
 24
159.4050515464
 34
0.0
100
AcDbRotatedDimension
  0
DIMENSION
  5
19F
330
1F
100
AcDbEntity
  8
KOTY
100
AcDbDimension
  2
*D12
 10
61.5527835052
 20
171.9050515464
 30
0.0
 11
72.5527835052
 21
171.9050515464
 31
0.0
 70
   160
 71
     2
 42
-1.0
  3
SLDDIMSTYLE0
100
AcDbAlignedDimension
 13
83.5527835052
 23
159.4050515464
 33
0.0
 14
61.5527835052
 24
159.4050515464
 34
0.0
100
AcDbRotatedDimension
  0
DIMENSION
  5
1A9
330
1F
100
AcDbEntity
  8
KOTY
100
AcDbDimension
  2
*D13
 10
38.5527835052
 20
133.9050515464
 30
0.0
 11
38.5527835052
 21
146.9050515464
 31
0.0
 70
   160
 71
     2
 42
-1.0
  3
SLDDIMSTYLE0
100
AcDbAlignedDimension
 13
62.0527835052
 23
159.9050515464
 33
0.0
 14
63.7527835052
 24
133.9050515464
 34
0.0
 50
90.0
100
AcDbRotatedDimension
  0
DIMENSION
  5
1B3
330
1F
100
AcDbEntity
  8
KOTY
100
AcDbDimension
  2
*D14
 10
38.5527835052
 20
108.1050515464
 30
0.0
 11
38.5527835052
 21
120.3550515464
 31
0.0
 70
   160
 71
     2
 42
-1.0
  3
SLDDIMSTYLE1
100
AcDbAlignedDimension
 13
45.7527835052
 23
132.6050515464
 33
0.0
 14
45.7527835052
 24
108.1050515464
 34
0.0
 50
90.0
100
AcDbRotatedDimension
  0
DIMENSION
  5
1BD
330
1F
100
AcDbEntity
  8
KOTY
100
AcDbDimension
  2
*D15
 10
71.6527835052
 20
100.9050515464
 30
0.0
 11
77.0027835052
 21
100.9050515464
 31
0.0
 70
   160
 71
     2
 42
-1.0
  3
SLDDIMSTYLE1
100
AcDbAlignedDimension
 13
82.3527835052
 23
108.1050515464
 33
0.0
 14
71.6527835052
 24
108.1050515464
 34
0.0
100
AcDbRotatedDimension
  0
DIMENSION
  5
1C7
330
1F
100
AcDbEntity
  8
KOTY
100
AcDbDimension
  2
*D16
 10
70.0527835052
 20
100.9050515464
 30
0.0
 11
58.1852106802
 21
100.9050515464
 31
0.0
 70
   160
 71
     2
 42
-1.0
  3
SLDDIMSTYLE1
100
AcDbAlignedDimension
 13
45.7527835052
 23
113.3050515464
 33
0.0
 14
70.0527835052
 24
113.3050515464
 34
0.0
100
AcDbRotatedDimension
  0
ENDSEC
  0
SECTION
  2
OBJECTS
  0
DICTIONARY
  5
C
330
0
100
AcDbDictionary
281
     1
  3
ACAD_GROUP
350
D
  3
ACAD_LAYOUT
350
1A
  3
ACAD_MLINESTYLE
350
17
  3
ACAD_PLOTSETTINGS
350
19
  3
ACAD_PLOTSTYLENAME
350
E
  0
DICTIONARY
  5
D
102
{ACAD_REACTORS
330
C
102
}
330
C
100
AcDbDictionary
281
     1
  0
DICTIONARY
  5
1A
102
{ACAD_REACTORS
330
C
102
}
330
C
100
AcDbDictionary
281
     1
  3
Layout1
350
1E
  3
Layout2
350
26
  3
Model
350
22
  0
DICTIONARY
  5
17
102
{ACAD_REACTORS
330
C
102
}
330
C
100
AcDbDictionary
281
     1
  3
Standard
350
18
  0
DICTIONARY
  5
19
102
{ACAD_REACTORS
330
C
102
}
330
C
100
AcDbDictionary
281
     1
  0
ACDBDICTIONARYWDFLT
  5
E
102
{ACAD_REACTORS
330
C
102
}
330
C
100
AcDbDictionary
281
     1
  3
Normal
350
F
100
AcDbDictionaryWithDefault
340
F
  0
LAYOUT
  5
1E
102
{ACAD_REACTORS
330
1A
102
}
330
1A
100
AcDbPlotSettings
  1

  2
none_device
  4

  6

 40
0.0
 41
0.0
 42
0.0
 43
0.0
 44
0.0
 45
0.0
 46
0.0
 47
0.0
 48
0.0
 49
0.0
140
0.0
141
0.0
142
1.0
143
1.0
 70
   688
 72
     0
 73
     0
 74
     5
  7

 75
    16
147
1.0
148
0.0
149
0.0
100
AcDbLayout
  1
Layout1
 70
     1
 71
     1
 10
0.0
 20
0.0
 11
420.0
 21
297.0
 12
0.0
 22
0.0
 32
0.0
 14
1.0000000000E+20
 24
1.0000000000E+20
 34
1.0000000000E+20
 15
-1.0000000000E+20
 25
-1.0000000000E+20
 35
-1.0000000000E+20
146
0.0
 13
0.0
 23
0.0
 33
0.0
 16
1.0
 26
0.0
 36
0.0
 17
0.0
 27
1.0
 37
0.0
 76
     0
330
1B
  0
LAYOUT
  5
26
102
{ACAD_REACTORS
330
1A
102
}
330
1A
100
AcDbPlotSettings
  1

  2
none_device
  4

  6

 40
0.0
 41
0.0
 42
0.0
 43
0.0
 44
0.0
 45
0.0
 46
0.0
 47
0.0
 48
0.0
 49
0.0
140
0.0
141
0.0
142
1.0
143
1.0
 70
   688
 72
     0
 73
     0
 74
     5
  7

 75
    16
147
1.0
148
0.0
149
0.0
100
AcDbLayout
  1
Layout2
 70
     1
 71
     2
 10
0.0
 20
0.0
 11
0.0
 21
0.0
 12
0.0
 22
0.0
 32
0.0
 14
0.0
 24
0.0
 34
0.0
 15
0.0
 25
0.0
 35
0.0
146
0.0
 13
0.0
 23
0.0
 33
0.0
 16
1.0
 26
0.0
 36
0.0
 17
0.0
 27
1.0
 37
0.0
 76
     0
330
23
  0
LAYOUT
  5
22
102
{ACAD_REACTORS
330
1A
102
}
330
1A
100
AcDbPlotSettings
  1

  2
none_device
  4

  6

 40
0.0
 41
0.0
 42
0.0
 43
0.0
 44
0.0
 45
0.0
 46
0.0
 47
0.0
 48
0.0
 49
0.0
140
0.0
141
0.0
142
1.0
143
1.0
 70
  1712
 72
     0
 73
     0
 74
     0
  7

 75
     0
147
1.0
148
0.0
149
0.0
100
AcDbLayout
  1
Model
 70
     1
 71
     0
 10
0.0
 20
0.0
 11
210.0
 21
297.0
 12
0.0
 22
0.0
 32
0.0
 14
0.0
 24
0.0
 34
0.0
 15
210.0
 25
297.0
 35
0.0
146
0.0
 13
0.0
 23
0.0
 33
0.0
 16
1.0
 26
0.0
 36
0.0
 17
0.0
 27
1.0
 37
0.0
 76
     0
330
1F
331
29
  0
MLINESTYLE
  5
18
102
{ACAD_REACTORS
330
17
102
}
330
17
100
AcDbMlineStyle
  2
Standard
 70
     0
  3

 62
   256
 51
90.0
 52
90.0
 71
     2
 49
0.5
 62
   256
  6
BYLAYER
 49
-0.5
 62
   256
  6
BYLAYER
  0
ACDBPLACEHOLDER
  5
F
102
{ACAD_REACTORS
330
E
102
}
330
E
  0
ENDSEC
  0
EOF
